<?xml version="1.0" standalone="no"?>
<!DOCTYPE svg PUBLIC "-//W3C//DTD SVG 1.1//EN" "http://www.w3.org/Graphics/SVG/1.1/DTD/svg11.dtd" >
<!--
2013-9-30: Created.
-->
<svg>
<metadata>
Created by iconfont
</metadata>
<defs>

<font id="iconfont" horiz-adv-x="1024" >
  <font-face
    font-family="iconfont"
    font-weight="500"
    font-stretch="normal"
    units-per-em="1024"
    ascent="896"
    descent="-128"
  />
    <missing-glyph />
    
    <glyph glyph-name="yundanchaxun" unicode="&#58938;" d="M884.224 122.88c0 16.896-11.776 28.16-28.16 28.16-16.896 0-28.16-11.776-28.16-28.16v-50.688c0-50.176-40.96-91.136-91.136-91.136H232.448c-50.176 0-91.136 40.96-91.136 91.136V604.16c0 50.176 40.96 91.136 91.136 91.136h50.688c16.896 0 28.16 11.776 28.16 28.16 0 16.896-11.776 28.16-28.16 28.16h-50.688c-85.504 0-152.064-66.56-152.064-152.064v-527.36c0-85.504 66.56-152.064 152.064-152.064h504.32c40.96 0 80.384 16.896 108.544 47.104 27.136 28.672 40.96 66.048 38.912 104.96V122.88zM635.904 94.208c29.184 0 58.368 14.336 77.312 38.4 69.12 78.336 230.4 274.944 230.4 407.04 0 166.912-140.8 308.224-308.224 308.224C465.92 847.872 327.68 707.584 327.68 535.552c0-112.64 125.44-283.648 230.912-407.04 20.992-21.504 50.176-34.304 77.312-34.304z m-251.392 445.44c0 138.752 112.64 251.392 251.392 251.392 139.264 0 251.392-110.592 256-251.392 0-74.752-79.872-210.432-218.624-372.736-7.68-9.728-20.48-15.36-34.816-15.36s-27.136 5.632-34.816 15.36C465.92 322.048 384.512 461.312 384.512 539.648zM755.712 567.296c0 67.072-52.736 119.808-119.808 119.808s-119.808-52.736-119.808-119.808 52.736-119.808 119.808-119.808 119.808 52.736 119.808 119.808z m-187.904 0c0 38.4 29.696 68.096 68.096 68.096 37.888 0 68.096-29.696 68.096-68.096s-29.696-68.096-68.096-68.096-68.096 30.208-68.096 68.096zM209.408 71.68h284.16c8.704 0 18.944 12.8 18.944 28.16 0 17.92-7.168 28.16-18.944 28.16H209.408c-11.776 0-18.944-10.752-18.944-28.16 0-17.92 7.168-28.16 18.944-28.16zM356.352 218.112c11.776 0 18.944 10.752 18.944 28.16 0 17.92-7.168 28.16-18.944 28.16H204.8c-11.776 0-18.944-10.752-18.944-28.16s12.288-28.16 23.552-28.16h146.944z"  horiz-adv-x="1024" />

    
    <glyph glyph-name="yundandayin" unicode="&#58961;" d="M815.668966 564.082759H208.331034c-1.765517 0-3.531034 1.765517-3.531034 3.531034v51.2c0 1.765517 1.765517 3.531034 3.531034 3.531035h607.337932c1.765517 0 3.531034-1.765517 3.531034-3.531035v-51.2c0-1.765517-1.765517-3.531034-3.531034-3.531034zM759.172414 617.048276H264.827586c-22.951724 0-40.606897-17.655172-40.606896-40.606897v-603.806896c0-22.951724 17.655172-40.606897 38.841379-40.606897h338.97931c14.124138 0 24.717241 10.593103 24.717242 24.717242s-10.593103 24.717241-24.717242 24.717241H275.42069v582.62069h474.924138v-582.62069h-22.951725c-14.124138 0-24.717241-10.593103-24.717241-24.717241s10.593103-24.717241 24.717241-24.717242h35.310345c21.186207 0 40.606897 17.655172 40.606897 38.84138V578.206897c-3.531034 21.186207-21.186207 38.841379-44.137931 38.841379 1.765517 0 0 0 0 0zM681.489655 149.186207H344.275862c-14.124138 0-26.482759-12.358621-26.482759-26.482759s12.358621-26.482759 26.482759-26.482758h337.213793c14.124138 0 26.482759 12.358621 26.482759 26.482758s-10.593103 26.482759-26.482759 26.482759zM317.793103 276.303448c0-14.124138 12.358621-26.482759 26.482759-26.482758h210.096552c14.124138 0 26.482759 12.358621 26.482758 26.482758s-12.358621 26.482759-26.482758 26.482759H344.275862c-14.124138 0-26.482759-12.358621-26.482759-26.482759zM344.275862 403.42069H459.034483c14.124138 0 26.482759 12.358621 26.482758 26.482758s-12.358621 26.482759-26.482758 26.482759h-114.758621c-14.124138 0-26.482759-12.358621-26.482759-26.482759s10.593103-26.482759 26.482759-26.482758zM805.075862 834.206897H218.924138c-79.448276 0-143.006897-63.558621-143.006897-143.006897v-192.441379c0-75.917241 58.262069-137.710345 132.413793-143.006897v56.496552c-44.137931 5.296552-75.917241 42.372414-77.682758 86.510345V691.2c0 47.668966 38.841379 86.510345 86.510345 86.510345h584.386207c47.668966 0 86.510345-38.841379 86.510344-86.510345v-192.441379c0-44.137931-33.544828-81.213793-75.917241-86.510345v-56.496552c74.151724 5.296552 132.413793 67.089655 132.413793 143.006897V691.2c3.531034 79.448276-61.793103 143.006897-139.475862 143.006897z"  horiz-adv-x="1024" />

    
    <glyph glyph-name="zhinengzhijian" unicode="&#59036;" d="M512 862c4.6 0 9.2-1 13.6-3l385.9-180.8c13.7-6.4 23.3-19.3 25.4-34.3 25-172.4-1.9-322.6-80-449.8-31.6 30.3-47.4 45.5-47.4 45.5 63.4 109.8 85 237.8 65.4 385L512 794.7 149 624.6C110.6 336.5 230.2 121.5 512-26c64.4 33.7 120.4 71 167.9 111.8l46.3-44.5c-56-48.9-122.6-92.9-199.8-131.9-4.6-2.3-9.6-3.4-14.4-3.4-4.9 0-9.8 1.1-14.4 3.4C178.2 70.8 39.8 317.7 87 643.9c2.2 15 11.7 27.9 25.4 34.3L498.4 859c4.4 2 9 3 13.6 3z m11-287c105.5 0 191-85.5 191-191 0-42.1-13.6-81-36.7-112.6L802.8 151c12.8-12.2 13.2-32.5 0.9-45.2-12.1-12.6-32.1-13.2-44.9-1.3l-0.4 0.4-127 121.8C600.6 205.5 563.3 193 523 193c-105.5 0-191 85.5-191 191s85.5 191 191 191z m0-64c-70.1 0-127-56.9-127-127s56.9-127 127-127 127 56.9 127 127-56.9 127-127 127z"  horiz-adv-x="1024" />

    
    <glyph glyph-name="shouhouguanlishezhi" unicode="&#58956;" d="M839.338667 873.244444a91.022222 91.022222 0 0 0 84.423111-57.002666l84.48-209.749334c2.958222-7.395556 4.551111-15.36 4.551111-23.381333l-0.398222 5.688889h1.308444V42.666667a147.911111 147.911111 0 0 0-147.911111-147.911111h-682.666667a147.911111 147.911111 0 0 0-147.911111 147.911111V588.8h1.479111a62.577778 62.577778 0 0 0 4.266667 17.635556l84.423111 209.806222A91.022222 91.022222 0 0 0 209.92 873.244444z m106.040889-352.711111h-841.955556l0.056889-477.866666a79.644444 79.644444 0 0 1 71.964444-79.303111l7.68-0.341334h682.666667a79.644444 79.644444 0 0 1 79.644444 79.644445l-0.056888 477.866666zM551.424 433.379556a34.133333 34.133333 0 0 0-1.251556-43.747556l-4.437333-4.209778-93.411555-73.557333h145.408c69.063111 0 126.691556-50.062222 131.356444-114.688l0.284444-8.533333c0-65.934222-54.727111-118.670222-122.709333-122.936889l-8.931555-0.284445H353.905778a34.133333 34.133333 0 0 0-5.518222 67.811556l5.518222 0.455111h243.825778c35.669333 0 63.374222 25.315556 63.374222 54.954667 0 27.648-24.120889 51.541333-56.32 54.613333l-7.054222 0.341333H353.905778c-30.492444 0-44.828444 36.181333-25.201778 57.173334l4.096 3.754666 170.666667 134.542222a34.133333 34.133333 0 0 0 47.957333-5.688888zM839.338667 804.977778H209.92a22.755556 22.755556 0 0 1-21.105778-14.222222L107.406222 588.8h834.332445l-81.294223 201.955556a22.755556 22.755556 0 0 1-16.554666 13.767111l-4.551111 0.455111z"  horiz-adv-x="1024" />

    
    <glyph glyph-name="shouhou" unicode="&#58968;" d="M1020.469895 603.513263c2.263579-4.715789 3.503158-9.997474 3.503158-15.629474v-539.162947a172.193684 172.193684 0 0 0-172.166737-172.193684H172.193684A172.193684 172.193684 0 0 0 0 48.720842V587.883789c0 5.793684 1.347368 11.317895 3.826526 16.168422l0.350316 0.997052 89.519158 213.180632A126.868211 126.868211 0 0 0 210.647579 896h602.704842a126.868211 126.868211 0 0 0 116.951579-77.770105l89.519158-213.153684 0.646737-1.562948z m-68.985263-51.873684H72.515368v-502.918737a99.678316 99.678316 0 0 1 99.678316-99.705263h679.612632a99.678316 99.678316 0 0 1 99.705263 99.705263V551.612632z m-88.010106 238.565053a54.379789 54.379789 0 0 1-50.122105 33.28H210.647579c-21.881263 0-41.633684-13.123368-50.122105-33.28L90.758737 624.101053H933.187368l-69.712842 166.076631zM473.384421 444.712421a36.244211 36.244211 0 1 1-51.550316 50.930526L312.589474 385.050947a40.771368 40.771368 0 0 1 28.995368-69.470315h215.713684a99.678316 99.678316 0 1 0 0-199.356632h-226.546526a36.244211 36.244211 0 0 1 0-72.488421h226.546526a172.193684 172.193684 0 0 1 0 344.333474h-139.802947l55.888842 56.643368z"  horiz-adv-x="1024" />

    
    <glyph glyph-name="shouhou1" unicode="&#58957;" d="M675.08224 197.30432c-5.12 0-10.24 1.2288-14.7456 3.584l-236.9536 118.4768-1.6384 1.024c-1.024 0.6144-2.048 1.2288-2.9696 1.8432-0.9216 0.6144-1.6384 1.3312-2.4576 2.048-0.8192 0.7168-1.6384 1.4336-2.2528 2.2528-0.7168 0.8192-1.4336 1.6384-2.048 2.4576-0.6144 0.8192-1.2288 1.7408-1.8432 2.6624-0.512 0.9216-1.024 1.7408-1.536 2.6624-0.4096 0.9216-0.9216 1.9456-1.3312 3.072-0.3072 1.024-0.7168 1.9456-0.9216 2.9696-0.3072 1.024-0.512 2.048-0.7168 3.072-0.2048 1.1264-0.3072 2.3552-0.3072 3.584l-0.2048 1.9456v236.8512c0 18.3296 14.848 33.0752 33.0752 33.0752 18.3296 0 33.1776-14.848 33.1776-33.0752v-216.2688l218.5216-109.2608c16.384-8.192 22.9376-28.0576 14.7456-44.4416a33.28 33.28 0 0 0-29.5936-18.3296v-0.2048zM466.08384-76.82048c-254.464 0-460.8 206.2336-460.8 460.8s206.2336 460.8 460.8 460.8c122.2656 0 239.4112-48.5376 325.8368-134.9632a33.1264 33.1264 0 0 0 0-46.7968 33.1264 33.1264 0 0 0-46.7968 0c-154.0096 154.112-403.8656 154.2144-557.9776 0.1024-154.112-154.0096-154.2144-403.8656-0.1024-557.9776a394.6496 394.6496 0 0 1 279.1424-115.6096c203.3664 1.3312 372.9408 155.9552 392.8064 358.4l0.6144 6.5536-42.496-42.496a33.1264 33.1264 0 0 0-46.7968 0 33.1264 33.1264 0 0 0 0 46.7968l96.1536 96.1536a33.1264 33.1264 0 0 0 46.7968 0l95.9488-95.9488a33.1264 33.1264 0 0 0 0-46.7968 33.1264 33.1264 0 0 0-46.7968 0l-36.864 36.864-0.4096-5.12c-22.3232-237.3632-220.7744-419.328-459.0592-420.7616z"  horiz-adv-x="1024" />

    
    <glyph glyph-name="heimingdan" unicode="&#59467;" d="M783.744 337.92c-132.544 0-240-104.192-240-232.832s107.456-232.96 240-232.96c132.48 0 240 104.32 240 232.96 0 128.64-107.52 232.896-240 232.896zM604.8 105.152c0 46.08 18.816 90.24 52.416 122.752a181.76 181.76 0 0 0 235.2 14.4l-259.584-229.696a168.576 168.576 0 0 0-27.968 92.544H604.8z m178.944-173.632a180.8 180.8 0 0 0-108.672 36.48l259.584 229.76c17.536-26.944 28.032-58.56 28.032-92.608 0-95.936-80.128-173.632-178.944-173.632zM585.6 298.368c2.88-0.768 5.76-1.664 8.96-1.664a32.576 32.576 0 0 1 35.84 3.84 30.272 30.272 0 0 1 9.088 33.792 31.744 31.744 0 0 1-29.312 20.416l0.384 0.832c-1.088 0.384-2.24 0.64-3.328 1.088l-0.64 0.128a459.072 459.072 0 0 1-23.424 7.68c89.344 49.408 150.272 141.568 150.272 248.512C731.008 769.792 599.296 895.744 437.76 895.744c-161.664 0-293.376-125.888-295.808-282.752 0-110.336 64.832-204.928 158.912-252.992-174.528-59.52-293.632-216.64-300.032-396.032H1.28c0-0.832-0.448-1.472-0.448-2.304 0-17.28 14.4-31.296 32.192-31.296 22.208 0 38.848 14.016 38.848 31.296 0 0.832-0.384 1.472-0.448 2.304h0.64c8.256 199.04 170.048 351.68 377.152 351.68 48 0 93.824-2.048 136.192-17.664l0.192 0.448zM437.76 389.824c-127.104 0-230.144 99.904-230.144 223.232S310.656 836.288 437.76 836.288c127.104 0 230.08-99.904 230.08-223.232S564.736 389.824 437.76 389.824z"  horiz-adv-x="1024" />

    
    <glyph glyph-name="gongyingshang" unicode="&#58939;" d="M1023.168831-99.407792c-20.347013 240.108052-159.584416 436.130909-376.752208 493.581298a268.70026 268.70026 0 1 1-134.383376-36.238961c5.784935 0 11.37039 0.531948 17.022337 0.864416 245.494026-8.311688 405.61039-193.895065 436.995325-433.005714H58.547532C78.828052 75.204156 150.441558 206.262857 260.155844 283.461818A26.597403 26.597403 0 0 1 269.863896 304.207792a26.597403 26.597403 0 0 1-26.597402 26.597403 26.597403 26.597403 0 0 1-16.822858-6.649351C102.366753 232.993247 15.526234 72.544416 0.831169-101.402597a26.597403 26.597403 0 0 1 25.533506-26.597403h971.27065v1.928312a26.597403 26.597403 0 0 1 25.533506 26.597402zM296.793766 626.967273a215.239481 215.239481 0 1 0 215.172987-215.239481 215.239481 215.239481 0 0 0-215.172987 215.239481z m0 0M524.002078 28.858182v-0.332468l1.529351 1.662338 73.874285 64.698182-38.898701 201.00987v0.531948H463.492987l-38.034286-200.943377L499.532468 28.924675a17.554286 17.554286 0 0 1 23.937662-0.398961zM467.083636 111.376623l29.124156 153.6h31.717403l30.321039-154.996363-46.013507-34.776104z m0 0"  horiz-adv-x="1024" />

    
    <glyph glyph-name="jianyi" unicode="&#58954;" d="M514.461596 831.55059c108.947897 0 217.895794-38.452199 298.004541-115.356597 134.582696-134.582696 157.013145-346.06979 48.065248-503.082935-44.860899-67.291348-108.947897-118.560946-185.852294-150.604445l-121.765297-118.560947c-12.8174-12.8174-35.247849-12.8174-48.065248 0l-150.604446 118.560947c-76.904398 35.247849-144.195746 89.721797-192.260994 160.217495-108.947897 157.013145-73.700048 378.113289 64.086998 512.695985 70.495698 73.700048 176.239245 96.130497 288.391492 96.130497z m0 64.086998a471.039436 471.039436 0 0 1-480.652486-416.565488c-3.20435-51.269598 0-105.743547 12.817399-157.013145 28.839149-131.378346 118.560946-240.326243 243.530593-291.595841l160.217495-128.173997c76.904398-76.904398 179.443595 19.226099 160.217496 0l128.173996 128.173997c131.378346 57.678298 275.574092 201.874044 249.939292 448.608986-25.634799 243.530593-230.713193 426.178537-474.243785 416.565488m-224.304494-384.521989c35.247849 0 64.086998-28.839149 64.086998-64.086998s-28.839149-64.086998-64.086998-64.086998-64.086998 28.839149-64.086998 64.086998 28.839149 64.086998 64.086998 64.086998z m224.304494 0c35.247849 0 64.086998-28.839149 64.086998-64.086998s-28.839149-64.086998-64.086998-64.086998-64.086998 28.839149-64.086999 64.086998 28.839149 64.086998 64.086999 64.086998z m224.304493 0c35.247849 0 64.086998-28.839149 64.086998-64.086998s-28.839149-64.086998-64.086998-64.086998-64.086998 28.839149-64.086998 64.086998 28.839149 64.086998 64.086998 64.086998z"  horiz-adv-x="1024" />

    
    <glyph glyph-name="gongyingshangguanli" unicode="&#58940;" d="M648.807062-56.554381C453.26488-143.390193 53.884787-101.749943 53.884787 68.366368 53.884787 272.258147 210.264664 438.118858 404.02919 438.118858c94.592857 0 180.297433-39.539383 243.215689-103.75048a98.902327 98.902327 0 0 0 88.23639 76.116006c12.389725 0.915762 24.994924 0.915762 37.438517 0 43.471774-3.232102 78.486215-34.906704 88.344126-76.493085 40.185804 11.420094 84.034657-5.60231 107.736739-42.28667 6.733546-10.612069 12.820672-21.708953 18.099773-33.021311 18.315246-39.808725 9.534701-87.697706-21.655085-116.894362 31.135918-29.196656 39.862594-76.870164 21.762821-116.409547a262.123487 262.123487 0 0 0-18.315245-33.559994c-23.378872-36.468886-67.335462-53.491291-107.682871-42.071197-9.857912-41.586381-44.818484-73.260983-87.91318-76.493085a233.088436 233.088436 0 0 0-37.815595 0 98.579117 98.579117 0 0 0-86.674207 70.190486z m-88.88281 25.372002a101.488009 101.488009 0 0 0-20.523849 23.163399 283.401493 283.401493 0 0 0-18.099772 33.075179c-18.369114 39.754857-9.58857 87.643837 21.547348 116.786625-31.243654 29.304393-39.916462 77.031769-21.708953 116.517284 5.225232 11.527831 11.420094 22.840189 18.422982 33.667731 9.373096 14.490591 21.978295 25.910686 36.307281 33.667731A282.808941 282.808941 0 0 1 404.02919 384.250488c-163.22116 0-296.276033-141.08126-296.276033-315.88412 0-104.881716 276.937289-138.064632 452.171095-99.548747z m365.065941 136.77179a45.087825 45.087825 0 0 0-17.938167 36.253413c0 14.436723 6.733546 27.957684 17.938167 36.307281 16.914668 12.497462 22.624715 37.438517 13.197751 57.908498a229.533123 229.533123 0 0 1-14.652197 26.718711c-12.120383 18.800061-35.391519 26.018423-54.137711 16.8608-12.389725-6.087126-26.880316-5.386837-38.67749 1.777656a44.872352 44.872352 0 0 0-20.847059 33.7216c-2.262472 22.516979-19.50035 40.024199-40.939961 41.640249a199.959388 199.959388 0 0 1-29.465998 0c-21.49348-1.616051-38.731358-19.17714-40.993829-41.640249a44.872352 44.872352 0 0 0-20.793191-33.7216 40.024199 40.024199 0 0 0-38.785226-1.777656c-18.692324 9.157623-41.96346 1.939261-54.083843-16.8608a208.901538 208.901538 0 0 1-14.598329-26.718711c-9.480833-20.46998-3.824654-45.357167 13.143883-57.908498a45.087825 45.087825 0 0 0 17.938167-36.307281 45.303299 45.303299 0 0 0-17.938167-36.253413c-16.914668-12.55133-22.624715-37.492385-13.143883-57.962365 4.255601-9.211491 9.157623-18.207509 14.598329-26.718712 12.120383-18.800061 35.391519-26.018423 54.137711-16.860799 12.389725 6.087126 26.934185 5.386837 38.731358-1.777657 11.581699-7.002888 19.338745-19.661955 20.793191-33.667731 2.262472-22.570847 19.50035-40.078067 40.993829-41.694118a180.189697 180.189697 0 0 1 29.41213 0c21.547348 1.616051 38.731358 19.17714 40.993829 41.694118a44.656878 44.656878 0 0 0 20.847059 33.667731 40.024199 40.024199 0 0 0 38.67749 1.777657c18.746193-9.157623 42.071197-1.939261 54.137711 16.860799 5.494574 8.511202 10.450464 17.50722 14.652197 26.718712 9.373096 20.46998 3.716918 45.357167-13.197751 57.962365zM754.173593 222.645379c-44.60301 0-80.802555-36.307281-80.802555-80.802555s36.307281-80.802555 80.802555-80.802554c44.60301 0 80.802555 36.307281 80.802554 80.802554s-36.199544 80.802555-80.802554 80.802555z m0-107.73674a26.934185 26.934185 0 1 0 0 53.86837 26.934185 26.934185 0 0 0 0-53.86837zM404.02919 491.987227a188.539294 188.539294 0 1 0 0 377.078588 188.539294 188.539294 0 0 0 0-377.078588z m0 53.86837a134.670924 134.670924 0 1 1 0 269.341848 134.670924 134.670924 0 0 1 0-269.341848z"  horiz-adv-x="1024" />

    
    <glyph glyph-name="gongyingshangguanli1" unicode="&#59092;" d="M755.2 144.262095a20.089905 20.089905 0 0 0-7.728762 1.609143l-143.993905 64.536381a18.041905 18.041905 0 0 0-10.922666 17.334857 19.236571 19.236571 0 0 0 11.727238 17.066667l143.993905 57.856a18.041905 18.041905 0 0 0 14.409142-0.268191l142.140953-60.806095a18.992762 18.992762 0 0 0 11.459047-17.066667 18.310095 18.310095 0 0 0-11.190857-17.066666l-142.409143-61.610667a17.895619 17.895619 0 0 0-7.484952-1.584762z m-96.256 82.407619l96.52419-43.203047 94.939429 41.057523-95.085714 40.521143zM754.395429-18.67581a22.844952 22.844952 0 0 0-7.314286 1.340953l-143.189333 59.733333a18.651429 18.651429 0 0 0-11.459048 17.334857v167.740953a18.67581 18.67581 0 0 0 37.327238 0v-155.477334l105.862095-44.275809 0.804572 135.192381a18.724571 18.724571 0 0 0 18.675809 18.675809 18.724571 18.724571 0 0 0 18.67581-18.675809l-1.072762-162.937905a18.968381 18.968381 0 0 0-8.265143-15.457524 17.554286 17.554286 0 0 0-10.044952-3.193905zM694.930286 114.127238a17.603048 17.603048 0 0 0-7.314286 1.609143l-31.207619 13.06819a18.70019 18.70019 0 1 0 14.628571 34.401524l31.207619-13.06819a18.773333 18.773333 0 0 0-7.460571-36.010667zM754.395429-18.67581a18.553905 18.553905 0 0 0-7.314286 35.742477l131.462095 54.125714v153.331809a18.67581 18.67581 0 1 0 37.327238 0v-165.790476a18.944 18.944 0 0 0-11.459047-17.334857l-143.189334-58.660571a22.698667 22.698667 0 0 0-6.826666-1.414096zM452.266667 387.998476a199.338667 199.338667 0 1 0 199.192381 199.460572 199.387429 199.387429 0 0 0-199.192381-199.460572z m0 345.33181a145.871238 145.871238 0 1 1 145.871238-145.871238 146.066286 146.066286 0 0 1-145.871238 145.871238zM134.680381 44.27581A26.819048 26.819048 0 0 0 108.007619 70.948571a344.356571 344.356571 0 0 0 570.660571 259.462096 26.648381 26.648381 0 1 0-34.937904-40.277334A290.864762 290.864762 0 0 1 161.645714 70.948571a26.965333 26.965333 0 0 0-26.965333-26.672761z"  horiz-adv-x="1024" />

    
    <glyph glyph-name="zuhe" unicode="&#58941;" d="M896 896H128C57.6 896 0 838.4 0 768v-768c0-70.4 57.6-128 128-128h768c70.4 0 128 57.6 128 128V768c0 70.4-57.6 128-128 128z m64-896c0-38.4-25.6-64-64-64H128c-38.4 0-64 25.6-64 64V768c0 38.4 25.6 64 64 64h768c38.4 0 64-25.6 64-64v-768zM768 512h-128V640c0 38.4-25.6 64-64 64H256c-38.4 0-64-25.6-64-64v-320c0-38.4 25.6-64 64-64h128v-128c0-38.4 25.6-64 64-64h320c38.4 0 64 25.6 64 64V448c0 38.4-25.6 64-64 64zM256 320V640h320v-128H448c-38.4 0-64-25.6-64-64v-128H256z m192 128h128v-128H448V448z m320-320H448v128h128c38.4 0 64 25.6 64 64V448h128v-320z"  horiz-adv-x="1024" />

    
    <glyph glyph-name="caigou1" unicode="&#58942;" d="M707.072 116.736H322.56c-16.384 0-29.696 13.312-29.696 29.696 0 16.384 13.312 29.696 29.696 29.696h384.512c16.384 0 29.696-13.312 29.696-29.696 0-16.384-13.312-29.696-29.696-29.696zM804.352-61.952h-578.56c-84.48 0-153.088 68.608-153.088 153.088V482.816c0 25.6 12.8 49.152 33.28 64l408.576 282.112 408.576-282.112c20.992-14.336 33.792-38.4 33.792-64v-391.68c0.512-84.48-68.096-153.088-152.576-153.088z m-289.28 819.2L139.776 498.176c-5.12-3.584-8.192-9.216-8.192-15.36v-391.68c0-51.712 41.984-94.208 94.208-94.208h578.56c51.712 0 93.696 41.984 93.696 94.208V482.816c0 6.144-3.072 11.776-8.192 15.36l-374.784 259.072zM644.608 361.984c-11.776 11.776-30.208 11.776-41.984 0l-57.856-47.616V540.16c0 16.384-13.312 29.696-29.696 29.696s-29.696-13.312-29.696-29.696v-226.304l-57.856 42.496c-11.776 11.776-30.208 11.776-41.984 0-11.776-11.776-11.776-30.208 0-41.984 0 0 103.936-88.064 105.472-89.088 6.656-6.656 14.336-12.288 24.064-12.288 9.728 0 17.408 5.632 24.064 12.288 1.536 1.024 105.472 94.208 105.472 94.208 11.264 12.288 11.264 30.72 0 42.496z"  horiz-adv-x="1024" />

    
    <glyph glyph-name="shouhouguanli" unicode="&#58943;" d="M819.2 409.6c-14.336 0-25.6 11.264-25.6 25.6v51.2c0 183.296-126.464 332.8-281.6 332.8S230.4 669.696 230.4 486.4v-51.2c0-14.336-11.264-25.6-25.6-25.6s-25.6 11.264-25.6 25.6v51.2c0 211.968 149.504 384 332.8 384s332.8-172.032 332.8-384v-51.2c0-14.336-11.264-25.6-25.6-25.6zM230.4 102.4h-51.2c-84.48 0-153.6 69.12-153.6 153.6v51.2c0 84.48 69.12 153.6 153.6 153.6h51.2v-358.4z m-51.2 307.2c-56.32 0-102.4-46.08-102.4-102.4V256c0-56.32 46.08-102.4 102.4-102.4v256zM844.8 102.4h-51.2V460.8h51.2c84.48 0 153.6-69.12 153.6-153.6V256c0-84.48-69.12-153.6-153.6-153.6z m0 307.2v-256c56.32 0 102.4 46.08 102.4 102.4v51.2c0 56.32-46.08 102.4-102.4 102.4zM563.2-76.8v51.2c158.208 0 245.248 51.712 266.24 158.72l50.176-10.24C853.504-9.728 747.008-76.8 563.2-76.8z"  horiz-adv-x="1024" />

    
    <glyph glyph-name="gongyingshangguanli2" unicode="&#58945;" d="M256 512c70.7 0 128 57.3 128 128s-57.3 128-128 128-128-57.3-128-128 57.3-128 128-128z m0 192c35.3 0 64-28.7 64-64s-28.7-64-64-64-64 28.7-64 64 28.7 64 64 64zM529.2 160.8L384 306v35.3c0 70.7-57.3 128-128 128s-128-57.3-128-128V0h256V215.5l100-100c6.3-6.3 14.4-9.4 22.6-9.4 8.2 0 16.4 3.1 22.6 9.4 12.5 12.5 12.5 32.8 0 45.3zM320 64H192V341.3c0 35.3 28.7 64 64 64s64-28.7 64-64V64zM768 512c70.7 0 128 57.3 128 128s-57.3 128-128 128-128-57.3-128-128 57.3-128 128-128z m0 192c35.3 0 64-28.7 64-64s-28.7-64-64-64-64 28.7-64 64 28.7 64 64 64zM768 469.3c-70.7 0-128-57.3-128-128V306L489.4 155.4c-12.5-12.5-12.5-32.8 0-45.3 6.3-6.3 14.4-9.4 22.6-9.4 8.2 0 16.4 3.1 22.6 9.4L640 215.5V0h256V341.3c0 70.7-57.3 128-128 128zM832 64H704V341.3c0 35.3 28.7 64 64 64s64-28.7 64-64V64z"  horiz-adv-x="1024" />

    
    <glyph glyph-name="jianyifuzhi" unicode="&#58946;" d="M802.133333 549.546667h21.333334a21.333333 21.333333 0 0 0 21.333333-21.333334v-551.936a21.333333 21.333333 0 0 0-21.333333-21.333333H98.133333a21.333333 21.333333 0 0 0-21.333333 21.333333v832a21.333333 21.333333 0 0 0 21.333333 21.333334h526.08a21.333333 21.333333 0 0 0 21.333334-21.333334v-21.333333a21.333333 21.333333 0 0 0-21.333334-21.333333H140.8v-746.666667h640V528.128a21.333333 21.333333 0 0 0 21.333333 21.333333zM906.325333 855.552l15.104-15.104a21.333333 21.333333 0 0 0 0-30.208l-422.4-422.4a21.333333 21.333333 0 0 0-30.122666 0l-15.104 15.104a21.333333 21.333333 0 0 0 0 30.208l422.4 422.4a21.333333 21.333333 0 0 0 30.122666 0z m-648.192-655.36h405.333334a21.333333 21.333333 0 0 0 21.333333-21.333333v-21.333334a21.333333 21.333333 0 0 0-21.333333-21.333333h-405.333334a21.333333 21.333333 0 0 0-21.333333 21.333333v21.333334a21.333333 21.333333 0 0 0 21.333333 21.333333z m10.666667 138.666667h85.333333a21.333333 21.333333 0 0 0 21.333334-21.333334v-21.333333a21.333333 21.333333 0 0 0-21.333334-21.333333h-85.333333a21.333333 21.333333 0 0 0-21.333333 21.333333v21.333333a21.333333 21.333333 0 0 0 21.333333 21.333334z"  horiz-adv-x="1024" />

    
    <glyph glyph-name="quanxianguanli" unicode="&#59644;" d="M511.92 818.16c25.76-16.88 87.04-54.16 172.96-88.08 109.12-43.12 184.72-44.32 192.96-44.32h9.2v-369.04c0-78.24-52.88-174.16-141.52-256.48C653.76-25.12 560.08-64 511.92-64c-48.08 0-141.68 38.88-233.52 124.16-88.56 82.32-141.44 178.16-141.44 256.48V685.76h9.2c8.32 0 84.08 1.28 192.88 44.32 84.48 33.44 146.24 70.72 172.88 88.08M511.84 896l-26-18.4c-0.72-0.4-67.28-47.28-170.32-88-100.48-39.84-168.4-39.84-169.36-39.84H72.96v-433.12C72.96 100.48 358.4-128 511.92-128c153.68 0 439.12 228.48 439.12 444.64V749.76h-73.2c-1.12 0-68.96 0.16-169.52 39.84-103.2 40.72-169.6 87.52-170.32 88L511.84 896zM512 319.52c-88.24 0-160 71.76-160 160s71.76 160 160 160 160-71.76 160-160-71.76-160-160-160z m0 256c-52.96 0-96-43.04-96-96s43.04-96 96-96 96 43.04 96 96-43.04 96-96 96zM512 64.48c-17.6 0-32 14.4-32 32v256c0 17.6 14.4 32 32 32s32-14.4 32-32v-256c0-17.6-14.4-32-32-32zM640 192.48H512c-17.6 0-32 14.4-32 32s14.4 32 32 32h128c17.6 0 32-14.4 32-32s-14.4-32-32-32z"  horiz-adv-x="1024" />

    
    <glyph glyph-name="zuhe1" unicode="&#59229;" d="M120.48 112.96a120.448 120.448 0 1 0 0-240.96 120.448 120.448 0 0 0 0 240.96z m0-60.224a60.224 60.224 0 1 1 0-120.512 60.224 60.224 0 0 1 0 120.512zM120.48 896c40.96 0 77.12-20.48 98.88-51.648l5.44-8.448L542.112 835.776c66.56 0 120.448-53.952 120.448-120.512v-180.608H602.272V715.264a60.224 60.224 0 0 1-53.12 59.84l-7.04 0.448H240.992c0-63.36-48.96-115.328-111.104-120.128l-9.408-0.384V353.92c0-30.848 23.296-56.32 53.248-59.776l7.04-0.448h120.384V414.208c0 66.56 54.016 120.448 120.512 120.448h361.408c66.56 0 120.512-53.952 120.512-120.448l-0.064-94.4L896.032 320a128 128 0 0 0 19.392-254.528l-11.904-1.28v-11.52c0-66.56-53.888-120.448-120.448-120.448H421.664a120.448 120.448 0 0 0-120.448 120.512v180.736H180.704A120.448 120.448 0 0 0 60.192 353.792L60.192 671.36A120.448 120.448 0 0 0 120.48 896z m662.592-421.632H421.664a60.224 60.224 0 0 1-59.84-53.248l-0.384-7.04v-361.344c0-30.912 23.232-56.32 53.184-59.84l7.04-0.448h361.408c30.912 0 56.32 23.296 59.84 53.248l0.384 7.04v22.592l2.048-0.896a128 128 0 0 0 0.192 235.2l-2.24-0.96V414.144a60.224 60.224 0 0 1-53.12 59.776l-7.04 0.448zM896.032 256a64 64 0 1 1 0-128 64 64 0 0 1 0 128z m7.552 640a120.448 120.448 0 1 0 0-240.96 120.448 120.448 0 0 0 0 240.96zM120.48 835.776a60.224 60.224 0 1 1 0-120.512 60.224 60.224 0 0 1 0 120.512z m783.104 0a60.224 60.224 0 1 1 0-120.512 60.224 60.224 0 0 1 0 120.512z"  horiz-adv-x="1024" />

    
    <glyph glyph-name="jianyi1" unicode="&#58948;" d="M886.4 806.4H137.6c-41.6 0-73.6-32-73.6-73.6V144c0-41.6 32-73.6 73.6-73.6h224c3.2-3.2 3.2-6.4 6.4-6.4l70.4-70.4c44.8-44.8 112-44.8 156.8 0l70.4 70.4 6.4 6.4h214.4c41.6 0 73.6 32 73.6 73.6V732.8c0 41.6-32 73.6-73.6 73.6zM896 144c0-6.4-3.2-9.6-9.6-9.6H636.8l-86.4-96c-19.2-19.2-48-19.2-67.2 0l-86.4 96H137.6c-6.4 0-9.6 3.2-9.6 9.6V732.8c0 6.4 3.2 9.6 9.6 9.6h748.8c6.4 0 9.6-3.2 9.6-9.6V144zM268.8 505.6h233.6c16 0 32 12.8 32 32s-12.8 32-32 32H268.8c-16 0-32-12.8-32-32s12.8-32 32-32z m486.4-124.8H268.8c-16 0-32-12.8-32-32 0-16 12.8-32 32-32h486.4c16 0 32 12.8 32 32 0 16-12.8 32-32 32z"  horiz-adv-x="1024" />

    
    <glyph glyph-name="shouhouguanli1" unicode="&#59126;" d="M802.747579 41.199202a21.624768 21.624768 0 1 1-21.624768 21.624769 21.624768 21.624768 0 0 1 21.624768-21.624769z m0-48.217389a69.842158 69.842158 0 1 0 69.549931 69.842158 69.842158 69.842158 0 0 0-69.549931-69.842158zM749.854564-80.659291z m-7.597891 4.383399a116.89064 116.89064 0 0 0 11.104611 9.351252 65.458759 65.458759 0 0 0 90.005793 0 131.794197 131.794197 0 0 0 11.104611-9.643478l26.59262 15.195783v1.461133a81.531222 81.531222 0 0 0 63.120946 101.694857 207.18866 207.18866 0 0 1 1.75336 21.624769 202.220808 202.220808 0 0 1-1.75336 21.332542A82.115675 82.115675 0 0 0 877.265363 165.395508a75.102237 75.102237 0 0 0 3.214492 21.040315l-26.300394 15.195783-11.104611-9.059025a77.732276 77.732276 0 0 0-43.83399-16.656916 74.81001 74.81001 0 0 0-43.249537 18.702503c-4.091172 2.922266-7.597892 6.136759-11.396837 9.351251l-27.469301-15.780237a75.102237 75.102237 0 0 0 3.214493-21.040315 82.115675 82.115675 0 0 0-66.043212-81.238995v-3.506719a149.912246 149.912246 0 0 1-1.461133-17.825823 154.295645 154.295645 0 0 1 1.461133-18.118049v-3.506719A81.823448 81.823448 0 0 0 720.339678-39.163113a75.102237 75.102237 0 0 0-3.214493-21.040316zM853.010555-126.831094a38.573911 38.573911 0 0 0-21.624769 6.721212 40.035044 40.035044 0 0 0-6.428985 5.844532 82.407902 82.407902 0 0 1-10.520158 9.643478 33.313833 33.313833 0 0 1-16.364689 8.474572 32.144926 32.144926 0 0 1-15.48801-7.890119 70.426611 70.426611 0 0 1-10.812384-9.935704 46.46403 46.46403 0 0 0-7.013439-5.844532 37.697232 37.697232 0 0 0-29.22266-5.260079 35.067192 35.067192 0 0 0-9.059025 3.798946L684.395806-97.608433a36.528325 36.528325 0 0 0-15.195783 45.587349A47.925163 47.925163 0 0 1 672.706742-39.163113a33.313833 33.313833 0 0 1-29.22266 34.190512 36.236099 36.236099 0 0 0-33.606059 29.22266c0 4.967852-1.461133 9.643478-2.045587 14.61133a181.472719 181.472719 0 0 0-1.753359 23.962582 184.979439 184.979439 0 0 0 1.753359 23.962581c0 5.552305 1.461133 10.520158 2.045587 14.319103a36.236099 36.236099 0 0 0 33.606059 29.22266 33.313833 33.313833 0 0 1 29.22266 35.067193 39.158365 39.158365 0 0 1-2.922266 13.150197 36.528325 36.528325 0 0 0 14.903556 45.295123l43.541764 24.839261a39.158365 39.158365 0 0 0 17.533596 4.675626 39.742818 39.742818 0 0 0 22.209222-6.721212 32.729379 32.729379 0 0 0 5.844532-5.260079 107.539389 107.539389 0 0 1 10.812384-9.351251 32.144926 32.144926 0 0 1 15.48801-7.597892 31.8527 31.8527 0 0 1 15.195783 7.597892 104.324897 104.324897 0 0 1 10.812384 9.059024 27.177074 27.177074 0 0 0 5.260079 4.675626 37.989458 37.989458 0 0 0 40.327271 2.337813l42.080631-24.254808a36.820552 36.820552 0 0 0 15.195783-45.879577 39.158365 39.158365 0 0 1-2.922266-13.150197 33.313833 33.313833 0 0 1 29.22266-34.190512 36.236099 36.236099 0 0 0 33.606059-29.22266A246.054798 246.054798 0 0 0 994.156003 63.116197a253.360463 253.360463 0 0 0-3.798946-38.573911 36.236099 36.236099 0 0 0-33.606059-29.22266 33.313833 33.313833 0 0 1-29.22266-34.190513 42.665084 42.665084 0 0 1 2.922266-13.150197 36.236099 36.236099 0 0 0-16.949143-45.587349l-42.665084-24.547035a34.774966 34.774966 0 0 0-17.825822-4.967852zM468.148121 699.585735c87.66798 0 202.805261-26.300394 202.805261-254.52937a35.359419 35.359419 0 0 1 70.426611 0c0 266.51066-148.158887 321.449261-272.647419 321.449261s-272.355192-55.815281-272.355192-321.449261a355.932 355.932 0 0 1 136.177596-282.583123v-4.967853C146.69886 131.789448 29.808219 58.732798 29.808219-32.149675a34.774966 34.774966 0 0 1 35.067192-34.190512 35.067192 35.067192 0 0 1 35.067192 34.190512c0 47.925163 101.110404 108.416069 270.89406 126.534118a34.482739 34.482739 0 0 1 30.976019 33.60606v52.308561a35.651645 35.651645 0 0 1-15.780236 29.22266 285.797616 285.797616 0 0 0-120.39736 236.119094C265.050633 673.869794 380.480141 699.585735 468.148121 699.585735zM898.597904 534.185478L854.471688 545.290089A384.862434 384.862434 0 0 1 468.148121 895.962011 383.985754 383.985754 0 0 1 79.486741 534.769931l-26.008167-21.332541a34.482739 34.482739 0 0 1-12.273517-26.592621v-134.13201a34.774966 34.774966 0 0 1 35.067192-34.190512 34.774966 34.774966 0 0 1 35.067192 34.190512v116.89064l26.008167 20.748089a34.774966 34.774966 0 0 1 12.565744 26.008168A314.435823 314.435823 0 0 0 468.148121 827.873212a314.728049 314.728049 0 0 0 318.234769-309.760197 33.898286 33.898286 0 0 1 26.59262-33.021606l43.541764-10.520157v-121.858493a35.067192 35.067192 0 0 1 70.134384 0v148.451113a35.943872 35.943872 0 0 1-29.22266 33.021606z"  horiz-adv-x="1024" />

    
    <glyph glyph-name="caigou2" unicode="&#58971;" d="M419.9 132c-59 0-107.1-48-107.1-107.1s48-107.1 107.1-107.1S527-34.1 527 24.9 478.9 132 419.9 132z m0-154.2c-26 0-47.1 21.1-47.1 47.1s21.1 47.1 47.1 47.1 47.1-21.1 47.1-47.1-21.1-47.1-47.1-47.1zM719.2 132c-59 0-107.1-48-107.1-107.1s48-107.1 107.1-107.1 107.1 48 107.1 107.1S778.3 132 719.2 132z m0-154.2c-26 0-47.1 21.1-47.1 47.1s21.1 47.1 47.1 47.1 47.1-21.1 47.1-47.1-21.1-47.1-47.1-47.1zM541.2 526.3c5.6-5.6 13.3-8.8 21.2-8.8 8 0 15.6 3.2 21.2 8.8l140.2 140.2c11.7 11.7 11.7 30.7 0 42.4s-30.7 11.7-42.4 0L592.5 620V820.2c0 16.6-13.4 30-30 30s-30-13.4-30-30V620l-88.9 88.9c-11.7 11.7-30.7 11.7-42.4 0s-11.7-30.7 0-42.4l140-140.2zM1004.6 833.5c-15.1 6.8-32.9 0.1-39.7-15L798.2 449.9c-8.1-17.9-26.1-29.5-45.8-29.5H310.2l-113 346.5c-12.4 37.9-47.5 63.4-87.4 63.4h-78c-16.6 0-30-13.4-30-30s13.4-30 30-30h78c13.9 0 26-8.8 30.3-22l162.5-498.4c11.7-35.9 45-60.1 82.8-60.1h427c16.6 0 30 13.4 30 30s-13.4 30-30 30h-427c-11.7 0-22.1 7.5-25.7 18.7l-29.9 91.9h422.7c43.2 0 82.7 25.4 100.5 64.8l166.7 368.6c6.7 15.1 0 32.9-15.1 39.7z"  horiz-adv-x="1024" />

    
    <glyph glyph-name="quanxianguanli1" unicode="&#58958;" d="M501.4 380.1c131.9 0 239.2 107.3 239.2 239.2S633.3 858.4 501.4 858.4c-131.9 0-239.2-107.3-239.2-239.2s107.3-239.1 239.2-239.1z m0 421.6c100.6 0 182.4-81.8 182.4-182.4S602 436.8 501.4 436.8c-100.6 0-182.4 81.8-182.4 182.4S400.8 801.7 501.4 801.7zM509.5 329h-0.6l-228.5-4.4c-82.6-0.2-152.7-67.2-166.8-159.6-0.1-0.4-0.1-0.7-0.1-1.1L90-45.10000000000002c-0.9-8 1.7-16.1 7-22.1 5.4-6 13.1-9.5 21.1-9.5H497c15.7 0 28.4 12.7 28.4 28.4s-12.7 28.4-28.4 28.4H150l19.9 176.8c10 64.3 56.6 110.9 110.9 110.9h0.5l228.7 4.4c15.7 0.3 28.1 13.2 27.8 28.9-0.2 15.5-12.8 27.9-28.3 27.9zM793.7 244.79999999999995v64h89.9c15.7 0 28.4 12.7 28.4 28.4s-12.7 28.4-28.4 28.4h-89.9v60.8h89.9c15.7 0 28.4 12.7 28.4 28.4s-12.7 28.4-28.4 28.4H765.3c-15.7 0-28.4-12.7-28.4-28.4v-209.9c-79.6-13.5-140.5-83-140.5-166.4 0-93.1 75.7-168.8 168.8-168.8S934-14.600000000000023 934 78.5c0.1 83.3-60.7 152.8-140.3 166.3z m-28.4-278.5c-61.8 0-112.1 50.3-112.1 112.1s50.3 112.1 112.1 112.1 112.1-50.3 112.1-112.1-50.3-112.1-112.1-112.1z"  horiz-adv-x="1024" />

    
    <glyph glyph-name="shouhouguanli2" unicode="&#58950;" d="M29.866667-128c-8.059259 0.18963-15.644444 3.602963-21.143704 9.481481-5.594074 5.973333-8.722963 13.937778-8.722963 22.186667V638.198519c0.18963 1.517037 0.474074 2.939259 0.948148 4.456296v1.517037L81.73037 842.05037c9.765926 31.668148 38.874074 53.475556 72.05926 53.94963h715.851851c33.09037-0.379259 62.198519-22.186667 71.964445-53.76l81.256296-198.068148v-1.517037c0.379259-1.422222 0.663704-2.939259 0.948148-4.456296v-2.74963h0.18963v-731.591111c0.094815-8.343704-3.128889-16.402963-8.912593-22.471111-5.594074-5.973333-13.368889-9.291852-21.522963-9.291852H29.866667zM56.888889 580.266667v-623.028148c0-15.739259 12.705185-28.444444 28.444444-28.444445h853.333334c15.739259 0 28.444444 12.705185 28.444444 28.444445V580.266667c0 15.739259-12.705185 28.444444-28.444444 28.444444H85.333333c-15.739259 0-28.444444-12.8-28.444444-28.444444z m82.678518 241.588148l-67.318518-156.065185h878.933333L884.053333 821.854815c-1.991111 6.352593-7.774815 10.714074-14.411852 10.808889H153.979259c-6.637037-0.094815-12.515556-4.361481-14.506666-10.714074l0.094814-0.094815z m208.308149-762.785185c-15.265185 0-27.591111 12.325926-27.591112 27.591111s12.325926 27.591111 27.591112 27.591111h282.263703c65.611852 0.094815 118.802963 53.380741 118.802963 118.992592 0.094815 65.706667-53.096296 119.087407-118.802963 119.277037H320.663704l51.2-51.389629c0.663704-0.568889 1.327407-1.232593 1.991111-1.896296 10.145185-11.282963 9.291852-28.539259-1.896296-38.77926-11.851852-9.860741-29.392593-8.628148-39.632593 2.844445L235.804444 358.779259c-10.619259 10.714074-10.619259 28.065185 0 38.77926L335.834074 497.777778c10.903704 9.671111 27.401481 9.291852 37.736296-0.948148 10.24-10.334815 10.714074-26.927407 0.948149-37.831111l-51.2-51.2h309.096296c22.281481-0.474074 44.278519-5.30963 64.663704-14.127408 20.48-8.817778 39.063704-21.522963 54.708148-37.451852 15.739259-15.834074 28.254815-34.607407 36.882963-55.182222 9.007407-21.333333 13.558519-44.278519 13.463703-67.413333 0-23.134815-4.551111-46.08-13.463703-67.413334-8.628148-20.574815-21.143704-39.253333-36.882963-55.182222-15.644444-15.834074-34.228148-28.539259-54.708148-37.451852-19.911111-8.628148-41.339259-13.463704-63.051852-14.127407h-2.275556l-283.875555-0.379259z"  horiz-adv-x="1024" />

    
    <glyph glyph-name="portalCg" unicode="&#58955;" d="M729.65091-52.474731a75.561825 75.561825 0 1 0 75.561825-75.543547 75.543547 75.543547 0 0 0-75.561825 75.561825z m-391.663955 0a75.561825 75.561825 0 1 0 75.561825-75.543547 75.543547 75.543547 0 0 0-75.580103 75.561825z m1.27947 186.437014a42.569785 42.569785 0 0 0-41.710713 34.033894l-153.335305 608.662017-123.505383 40.211905A42.588063 42.588063 0 1 0 65.697524 889.178416l139.060078-49.899319a42.588063 42.588063 0 0 0 19.210324-27.654823l150.04524-592.449308h408.552955l195.868534 297.641209a42.569785 42.569785 0 0 0 79.381956-30.762107L851.401592 161.214988a42.533229 42.533229 0 0 0-39.681839-27.179592z m109.339825 459.951081a37.1229 37.1229 0 0 0 52.513092 52.494814l85.505133-85.413742V847.559094a37.470184 37.470184 0 0 0 74.940368 0v-286.071148l79.071228 83.677319a36.867006 36.867006 0 1 0 53.244218-51.032563l-169.803908-175.598078z"  horiz-adv-x="1060" />

    
    <glyph glyph-name="zhinengpipeizheng" unicode="&#58927;" d="M303.7 425.5v-45.4c0-13-10.6-23.6-23.6-23.6H150c-13 0-23.6 10.6-23.6 23.6v45.4c0 13 10.6 23.6 23.6 23.6h130.1c13 0 23.6-10.5 23.6-23.6z m0 0M280.1 334H150c-25.4 0-46.1 20.7-46.1 46.1v45.4c0 25.4 20.7 46.1 46.1 46.1h130.1c25.4 0 46.1-20.7 46.1-46.1v-45.4c0-25.4-20.7-46.1-46.1-46.1zM150 426.6c-0.6 0-1-0.5-1-1v-45.4c0-0.6 0.5-1 1-1h130.1c0.6 0 1 0.5 1 1v45.4c0 0.6-0.5 1-1 1H150z m271.8-46.3h-28.5c-12.4 0-22.5 10.1-22.5 22.5s10.1 22.5 22.5 22.5h28.5c12.4 0 22.5-10.1 22.5-22.5 0.1-12.4-10-22.5-22.5-22.5z m105.9 0h-28.5c-12.4 0-22.5 10.1-22.5 22.5s10.1 22.5 22.5 22.5h28.5c12.4 0 22.5-10.1 22.5-22.5 0.1-12.4-10-22.5-22.5-22.5z m106 0h-28.5c-12.4 0-22.5 10.1-22.5 22.5s10.1 22.5 22.5 22.5h28.5c12.4 0 22.5-10.1 22.5-22.5s-10.1-22.5-22.5-22.5z m0 0M208.3 426.7c-8.7 0-17 5.1-20.7 13.6-3.1 7.2-1.9 18.5-0.2 26.7 30.4 155.8 167.8 268.9 326.8 268.9S810.6 622.8 841 467c2.4-12.2-5.6-24-17.8-26.4-12.2-2.4-24 5.6-26.4 17.8C770.5 593 651.6 690.8 514.2 690.8c-137.3 0-256.1-97.6-282.5-232-0.3-1.8-0.8-5.9-0.9-8 0.6-9.2-4.5-18.3-13.5-22.2-2.9-1.3-5.9-1.9-9-1.9z m305.9-356.8c-76.7 0-151.6 26.7-210.8 75.2-58.4 47.8-99.2 114.6-114.8 188-2.6 12.2 5.2 24.1 17.3 26.7 12.2 2.6 24.1-5.2 26.7-17.3 28.1-131.9 146.5-227.6 281.6-227.6 87.1 0 168.6 38.8 223.5 106.4 7.8 9.7 22 11.1 31.7 3.3s11.1-22 3.3-31.7c-63.6-78.2-157.8-123-258.5-123z m0 0M490.8 193.1h45.4c13 0 23.6-10.6 23.6-23.6v-130.1c0-13-10.6-23.6-23.6-23.6h-45.4c-13 0-23.6 10.5-23.6 23.6V169.5c0 13 10.6 23.6 23.6 23.6z m0 0M536.2-6.7h-45.4c-25.4 0-46.1 20.7-46.1 46.1V169.5c0 25.4 20.7 46.1 46.1 46.1h45.4c25.4 0 46.1-20.7 46.1-46.1v-130.1c0-25.4-20.7-46.1-46.1-46.1z m-45.4 177.3c-0.6 0-1-0.5-1-1v-130.1c0-0.6 0.5-1 1-1h45.4c0.6 0 1 0.5 1 1v130c0 0.6-0.5 1-1 1h-45.4z m0 0M490.8 789.9h45.4c13 0 23.6-10.6 23.6-23.6v-130.1c0-13-10.6-23.6-23.6-23.6h-45.4c-13 0-23.6 10.6-23.6 23.6V766.3c0 13 10.6 23.6 23.6 23.6z m0 0M536.2 590.1h-45.4c-25.4 0-46.1 20.7-46.1 46.1V766.3c0 25.4 20.7 46.1 46.1 46.1h45.4c25.4 0 46.1-20.7 46.1-46.1v-130.1c0-25.5-20.7-46.1-46.1-46.1z m-45.4 177.2c-0.6 0-1-0.5-1-1v-130.1c0-0.6 0.5-1 1-1h45.4c0.6 0 1 0.5 1 1V766.3c0 0.6-0.5 1-1 1h-45.4zM818.6 334h-71.8c-25.4 0-46.1 20.7-46.1 46.1v45.4c0 25.4 20.7 46.1 46.1 46.1H877c25.4 0 46.1-20.7 46.1-46.1v-45.4c0-12.4-10.1-22.5-22.5-22.5s-22.5 10.1-22.5 22.5v45.4c0 0.6-0.5 1-1 1H746.8c-0.6 0-1-0.5-1-1v-45.4c0-0.6 0.5-1 1-1h71.8c12.4 0 22.5-10.1 22.5-22.5 0.1-12.5-10-22.6-22.5-22.6z m0 0"  horiz-adv-x="1024" />

    
    <glyph glyph-name="pandian" unicode="&#58930;" d="M908.824484 136.593568s9.847482 142.385852-125.175765 195.85676a210.627984 210.627984 0 0 1-208.085585-42.208426S489.409167 217.225581 517.686167 102.081363c0 0 53.125787-150.898862 193.130296-149.552886 0 0 190.11623 8.973173 198.008021 184.065091h-34.512204s1.219431-149.552886-161.056954-149.552886c0 0-133.205605-2.300814-161.056955 149.552886 0 0 6.902441 172.561022 172.561023 172.561022 0 0 149.552886-1.691098 149.552886-172.561022h34.512204zM92.035645 642.772567v-690.24409h402.642386a35.225457 35.225457 0 0 0 0-57.520341H69.027509s-46.016273-6.465286-46.016273 46.016273V665.780703s1.322968 46.016273 34.512204 46.016273h851.301044s46.016273-11.043905 46.016273-46.016273v-299.105772s-27.805333-51.768307-69.024409 0V642.772567H92.035645zM276.100735 493.219681v-57.520341h402.642386v57.520341H276.100735zM46.019372 711.796976l103.536614 149.552886s16.519842 34.512204 69.024409 34.512204h529.187135s29.369886 4.256505 57.520341-34.512204l126.54475-161.056954h-80.528478L736.263462 838.341725H207.076327L115.043781 711.796976H46.019372zM839.800075-1.45525l115.040682-126.54475 46.016273 34.512204-126.54475 138.048818z"  horiz-adv-x="1024" />

    
    <glyph glyph-name="icon" unicode="&#58924;" d="M895.9-37.700000000000045h-61.7c-9.3-15.8-26.3-26.6-45.9-26.6s-36.7 10.7-46 26.6h-121c-9.3-15.8-26.3-26.6-46-26.6-19.6 0-36.7 10.7-45.9 26.6h-62.5c-13.8 0-25 11.1-25 24.8v1.7H200c-53.2 0-96.3 42.8-96.3 95.7V736.7c0 51.9 42.3 94 94.6 94h540.5c55.3 0 100.1-44.5 100.1-99.5V307h57c13.8 0 25-11.1 25-24.8v-269.4h0.1v-25.7c-0.1-13.6-11.3-24.8-25.1-24.8zM788.3 730.5c0 27.5-22.4 49.7-50 49.7h-534c-27.6 0-50-22.2-50-49.7v-641.3c0-27.5 22.4-49.7 50-49.7H442v88.1c0 12.7 4.4 25 12.5 34.9l75 91.8h116v3.2c0 27.4 22.4 49.7 50 49.7h92.7V730.5h0.1z m82-479c0 2.7-2.2 5-5 5H701c-2.8 0-5-2.2-5-5v-156.7h-91.6c-14 0-25.4 11.3-25.4 25.3 0 13.9 11.4 25.3 25.4 25.3h41v50c0 4.6-3.7 8.3-8.3 8.3h-79.7c-2.5 0-4.9-1.1-6.5-3.1l-56.6-69.2c-1.2-1.5-1.8-3.3-1.8-5.2v-113.3h35.1c8.8 17.6 26.7 29.7 47.7 29.7 21 0 38.9-12.1 47.7-29.7h117.6c8.7 17.6 26.7 29.7 47.7 29.7 21 0 38.9-12.1 47.7-29.7h29.4c2.8 0 5 2.2 5 5V251.5h-0.1zM639.9 417.7H285.8c-14 0-25.4 11.3-25.4 25.3 0 13.9 11.4 25.3 25.4 25.3h354.1c14 0 25.4-11.3 25.4-25.3 0.1-14-11.3-25.3-25.4-25.3z m0 158.9H285.8c-14 0-25.4 11.3-25.4 25.3s11.4 25.3 25.4 25.3h354.1c14 0 25.4-11.3 25.4-25.3s-11.3-25.3-25.4-25.3z"  horiz-adv-x="1024" />

    
    <glyph glyph-name="dayinyundan" unicode="&#59071;" d="M0 147.692308h39.384615v-150.961231C39.384615-50.412308 74.633846-88.615385 118.153846-88.615385h196.923077v-39.384615H118.153846c-65.260308 0-118.153846 56.950154-118.153846 127.212308V147.692308zM0 620.307692V768.787692C0 839.010462 52.893538 896 118.153846 896h196.923077v-39.384615H118.153846c-43.52 0-78.769231-38.203077-78.769231-85.346462V620.307692H0z m1063.384615-472.615384h39.384616v-148.48c0-70.262154-52.893538-127.212308-118.153846-127.212308h-196.923077v39.384615h196.923077c43.52 0 78.769231 38.203077 78.76923 85.346462V147.692308z m0 472.615384V771.268923C1063.384615 818.412308 1028.135385 856.615385 984.615385 856.615385h-196.923077V896h196.923077c65.260308 0 118.153846-56.950154 118.153846-127.212308V620.307692h-39.384616z m-486.912-19.692307v-433.23077a19.692308 19.692308 0 0 0-39.384615 0v433.23077a19.692308 19.692308 0 1 0 39.384615 0zM827.076923 600.615385v-433.23077a19.692308 19.692308 0 0 0-39.384615 0v433.23077a19.692308 19.692308 0 0 0 39.384615 0z m-512 0v-433.23077a19.692308 19.692308 0 0 0-39.384615 0v433.23077a19.692308 19.692308 0 0 0 39.384615 0z"  horiz-adv-x="1102" />

    
    <glyph glyph-name="kucun1" unicode="&#59101;" d="M0 512l512 384 512-384v-640H0V512z m64-32V-64h896V480L512 816 64 480zM256 320h64v-192H256V320z m448 0h64v-192h-64V320zM480 320h64v-192h-64V320z"  horiz-adv-x="1024" />

    
    <glyph glyph-name="gongzuoliucheng" unicode="&#58932;" d="M276.48 672.768h333.824c18.432-83.968 92.16-145.408 180.224-145.408 102.4 0 184.32 81.92 184.32 184.32s-81.92 184.32-184.32 184.32c-88.064 0-161.792-63.488-180.224-145.408H276.48c-112.64 0-204.8-92.16-204.8-204.8 0-102.4 73.728-186.368 172.032-200.704 4.096-2.048 10.24-2.048 14.336-2.048h444.416c67.584-2.048 124.928-57.344 124.928-126.976 0-69.632-57.344-126.976-126.976-126.976H366.592c-14.336 86.016-90.112 153.6-182.272 153.6-102.4 0-184.32-81.92-184.32-184.32s81.92-184.32 184.32-184.32c86.016 0 157.696 59.392 178.176 139.264h337.92c112.64 0 204.8 92.16 204.8 204.8 0 102.4-73.728 186.368-172.032 200.704-4.096 2.048-10.24 2.048-14.336 2.048h-16.384H274.432c-67.584 2.048-124.928 57.344-124.928 126.976 2.048 67.584 57.344 124.928 126.976 124.928z m514.048 145.408c59.392 0 106.496-47.104 106.496-106.496 0-59.392-47.104-106.496-106.496-106.496-59.392 0-106.496 47.104-106.496 106.496 0 57.344 47.104 106.496 106.496 106.496zM184.32-50.176c-59.392 0-106.496 47.104-106.496 106.496 0 59.392 47.104 106.496 106.496 106.496s106.496-47.104 106.496-106.496c0-57.344-47.104-106.496-106.496-106.496z"  horiz-adv-x="1024" />

    
    <glyph glyph-name="zhinengpipei" unicode="&#59227;" d="M512 896A511.992654 511.992654 0 0 1 52.76485 158.730578a34.949064 34.949064 0 0 1 41.182018-9.572036A30.051743 30.051743 0 0 1 109.751858 183.662394a442.984948 442.984948 0 0 0-47.637577 200.344952h193.889392a255.105905 255.105905 0 0 1 223.941135-252.657245v-193.666786a448.995297 448.995297 0 0 0-287.828914 131.559852 36.952513 36.952513 0 0 1-41.182018 0c-20.034495-12.020697-7.123376-41.182018-7.123376-41.182018A511.992654 511.992654 0 1 1 512 896z m445.211003-448.104875h-198.341502a254.8833 254.8833 0 0 1-214.814309 188.769465v193.666787A448.772692 448.772692 0 0 0 957.211003 447.895125zM544.055192 384.007346h160.053356a191.440732 191.440732 0 0 0-160.053356-188.769466z m0 63.887779v124.881686a191.218126 191.218126 0 0 0 148.255264-124.881686z m-63.887779 0H331.689544a191.218126 191.218126 0 0 0 148.255264 124.881686zM66.788997 447.895125A448.550086 448.550086 0 0 0 479.944808 830.331377v-193.666787a254.8833 254.8833 0 0 1-214.814309-188.769465zM319.891452 384.007346h160.053356v-188.769466A191.440732 191.440732 0 0 0 319.891452 384.007346z m224.16374-446.324031v193.666786A255.105905 255.105905 0 0 1 767.996327 384.007346h193.889392a448.550086 448.550086 0 0 0-417.830527-446.324031z m0 0"  horiz-adv-x="1024" />

    
    <glyph glyph-name="zhijian" unicode="&#58933;" d="M521.52832-107.82208h-13.96224l-4.36224 1.20832c-178.85696 49.5616-308.92544 191.34976-376.14592 410.0352C77.37856 465.0496 79.2576 610.33984 79.36512 616.448l0.4864 28.3648 80.84992 11.55072c118.0672 201.728 338.88768 223.60064 348.44672 224.45056l2.94912 0.128 7.85408-0.128c9.56416-0.84992 230.38464-22.72256 348.45184-224.45056l80.84992-11.55072 0.4864-28.3648c0.10752-6.10304 1.98656-151.39328-47.69792-313.02144-67.22048-218.68544-197.28896-360.4736-376.14592-410.0352l-4.36736-1.21344zM146.49344 587.09504c1.9456-48.75264 10.20928-154.2912 44.68224-265.69728 60.35968-195.05664 169.1392-316.8256 323.3792-362.0352 154.23488 45.2096 263.01952 166.97856 323.37408 362.0352 34.46784 111.39072 42.73664 216.92416 44.68224 265.69728l-56.5504 8.07936-7.9616 14.82752c-94.83264 176.73728-285.62944 202.4192-302.81216 204.37504h-1.41824c-16.86528-1.9968-208.46592-28.46208-302.85824-204.37504l-7.95648-14.82752-56.56064-8.07936zM709.40672 261.30944l-32.17408 26.50112c22.58944 36.33152 34.03776 80.43008 34.03264 131.34848-5.70368 138.1632-69.4784 211.1232-190.02368 216.85248-122.88-5.72416-188.06272-78.68416-193.7408-217.22112 4.27008-139.64288 69.4784-212.61824 193.98144-216.91392 38.81472 0 76.7744 12.91264 112.90624 38.39488l26.24512-24.37632c9.33376-9.30304 19.712-14.01856 30.82752-14.01856h0.42496l0.42496 0.07168c23.95648 4.02432 30.36672 17.21344 31.51872 27.56608l0.03072 0.56832c0 11.15136-4.74112 21.54496-14.45376 31.22688z m-111.09376 98.51904c-14.49984 12.78464-27.1104 18.048-38.53824 16.12288-9.43616-1.59744-17.4592-8.17664-24.07936-19.97312-4.58752-10.29632-6.22592-25.53856 11.64288-39.37792l35.05664-33.20832c-20.99712-12.48256-42.15808-18.81088-62.9248-18.81088-78.61248 1.3312-118.15424 51.87072-120.8832 154.22464 2.72896 99.82464 42.30144 149.67808 120.62208 152.41216 80.05632-2.73408 120.30976-52.58752 123.06432-152.27392 0-32.50688-5.8112-60.72832-17.28512-84.00384l-26.6752 24.88832z"  horiz-adv-x="1024" />

    
    <glyph glyph-name="gongzuoliucheng1" unicode="&#59098;" d="M255.573333 591.914667A109.226667 109.226667 0 0 0 146.474667 701.013333 109.184 109.184 0 0 0 255.573333 810.112c47.36 0 87.808-30.378667 102.826667-72.704h351.701333a182.016 182.016 0 0 0 181.802667-181.845333 182.016 182.016 0 0 0-181.802667-181.845334h-78.933333a109.226667 109.226667 0 0 0-102.869333-72.704 109.226667 109.226667 0 0 0-102.869334 72.704H310.101333a109.226667 109.226667 0 0 1-109.098666-109.056 109.226667 109.226667 0 0 1 109.098666-109.098666h351.701334a109.312 109.312 0 0 0 102.826666 72.704 109.226667 109.226667 0 0 0 109.098667-109.056 109.226667 109.226667 0 0 0-109.098667-109.098667 109.312 109.312 0 0 0-102.826666 72.704H310.101333a182.016 182.016 0 0 0-181.802666 181.845333 182.016 182.016 0 0 0 181.802666 181.802667h115.328a109.226667 109.226667 0 0 0 102.826667 72.746667 109.226667 109.226667 0 0 0 102.869333-72.704l78.976-0.042667A109.226667 109.226667 0 0 1 819.2 555.562667a109.226667 109.226667 0 0 1-109.098667 109.098666H358.4a109.312 109.312 0 0 0-102.826667-72.746666zM764.586667 155.562667a36.394667 36.394667 0 0 1 0-72.746667 36.394667 36.394667 0 0 1 0 72.746667z m-236.373334 290.901333a36.394667 36.394667 0 0 1 0-72.746667 36.394667 36.394667 0 0 1 0 72.746667zM255.573333 737.365333a36.394667 36.394667 0 0 1 0-72.704 36.394667 36.394667 0 0 1 0 72.704z"  horiz-adv-x="1024" />

    
    <glyph glyph-name="zhinengpipei3x" unicode="&#58934;" d="M823.466667 366.933333c-4.266667 8.533333-8.533333 12.8-17.066667 21.333334 38.4 46.933333 64 93.866667 68.266667 136.533333l-42.666667 4.266667c-4.266667-29.866667-21.333333-68.266667-51.2-106.666667-25.6 25.6-51.2 51.2-85.333333 72.533333-4.266667 38.4-12.8 76.8-21.333334 110.933334 8.533333 0 17.066667 4.266667 21.333334 4.266666h8.533333l-4.266667 42.666667h-8.533333c-12.8 0-21.333333-4.266667-34.133333-4.266667-34.133333 89.6-89.6 145.066667-149.333334 145.066667S392.533333 738.133333 358.4 648.533333c-89.6 8.533333-166.4-8.533333-196.266667-59.733333-25.6-46.933333-12.8-110.933333 38.4-183.466667 4.266667-8.533333 8.533333-17.066667 12.8-21.333333-4.266667-4.266667-8.533333-12.8-12.8-17.066667-51.2-72.533333-64-136.533333-38.4-183.466666 25.6-42.666667 72.533333-59.733333 140.8-59.733334 21.333333 0 38.4 0 59.733334 4.266667 34.133333-89.6 89.6-149.333333 149.333333-149.333333s115.2 55.466667 149.333333 149.333333c8.533333 0 17.066667-4.266667 21.333334-4.266667h38.4c68.266667 0 115.2 21.333333 140.8 59.733334 29.866667 46.933333 12.8 110.933333-38.4 183.466666z m-68.266667 17.066667c-17.066667-17.066667-34.133333-29.866667-51.2-46.933333V384v46.933333c17.066667-12.8 34.133333-29.866667 51.2-46.933333z m-166.4-128c-25.6-12.8-51.2-25.6-72.533333-38.4l-76.8 38.4c-25.6 12.8-46.933333 29.866667-72.533334 46.933333-4.266667 25.6-4.266667 55.466667-4.266666 85.333334s0 55.466667 4.266666 85.333333c21.333333 8.533333 46.933333 25.6 68.266667 38.4l76.8 38.4c25.6-12.8 46.933333-25.6 72.533333-38.4 25.6-12.8 46.933333-29.866667 72.533334-46.933333 4.266667-25.6 4.266667-55.466667 4.266666-85.333334s0-55.466667-4.266666-81.066666c-21.333333-12.8-46.933333-29.866667-68.266667-42.666667z m59.733333-12.8c-4.266667-25.6-8.533333-46.933333-17.066666-68.266667-21.333333 4.266667-42.666667 12.8-68.266667 21.333334 12.8 8.533333 29.866667 12.8 42.666667 21.333333 17.066667 8.533333 29.866667 17.066667 42.666666 25.6z m-187.733333-46.933333c-25.6-8.533333-46.933333-17.066667-68.266667-21.333334-4.266667 21.333333-12.8 42.666667-17.066666 68.266667 12.8-8.533333 25.6-17.066667 42.666666-25.6 12.8-8.533333 25.6-17.066667 42.666667-21.333333z m-140.8 140.8c-17.066667 17.066667-34.133333 29.866667-51.2 46.933333 17.066667 17.066667 34.133333 34.133333 51.2 46.933333v-93.866666z m55.466667 187.733333c4.266667 25.6 8.533333 46.933333 17.066666 68.266667 21.333333-4.266667 42.666667-12.8 68.266667-21.333334-12.8-8.533333-29.866667-12.8-42.666667-21.333333-17.066667-8.533333-29.866667-17.066667-42.666666-25.6z m273.066666 0c-12.8 8.533333-25.6 17.066667-42.666666 25.6-12.8 8.533333-29.866667 17.066667-42.666667 21.333333 21.333333 8.533333 46.933333 17.066667 68.266667 21.333334 8.533333-21.333333 12.8-42.666667 17.066666-68.266667zM512 746.666667c38.4 0 76.8-42.666667 106.666667-110.933334-34.133333-8.533333-68.266667-21.333333-106.666667-38.4-38.4 17.066667-72.533333 25.6-106.666667 34.133334 29.866667 72.533333 68.266667 115.2 106.666667 115.2zM196.266667 563.2c21.333333 34.133333 76.8 46.933333 153.6 38.4-8.533333-34.133333-17.066667-72.533333-21.333334-110.933333-29.866667-25.6-59.733333-46.933333-85.333333-72.533334-4.266667 4.266667-4.266667 8.533333-8.533333 12.8-42.666667 51.2-55.466667 102.4-38.4 132.266667z m0-358.4c-17.066667 29.866667-4.266667 81.066667 34.133333 136.533333 4.266667 4.266667 4.266667 8.533333 8.533333 12.8 25.6-25.6 51.2-51.2 85.333334-72.533333 4.266667-38.4 12.8-76.8 21.333333-110.933333-72.533333-12.8-128 0-149.333333 34.133333z m315.733333-183.466667c-38.4 0-76.8 42.666667-106.666667 110.933334 34.133333 8.533333 72.533333 21.333333 106.666667 34.133333 34.133333-17.066667 72.533333-29.866667 106.666667-34.133333-29.866667-68.266667-68.266667-110.933333-106.666667-110.933334z m315.733333 183.466667c-17.066667-29.866667-68.266667-46.933333-136.533333-38.4-4.266667 0-8.533333 0-12.8 4.266667 8.533333 34.133333 17.066667 72.533333 21.333333 110.933333 29.866667 25.6 59.733333 46.933333 85.333334 72.533333 4.266667-4.266667 4.266667-8.533333 8.533333-12.8 38.4-55.466667 51.2-106.666667 34.133333-136.533333zM810.666667 618.666667m-64 0a64 64 0 1 1 128 0 64 64 0 1 1-128 0Z"  horiz-adv-x="1024" />

    
    <glyph glyph-name="OAgongzuoliucheng-icon_workflow" unicode="&#58935;" d="M841.728 576.853333H356.010667A54.954667 54.954667 0 0 0 299.690667 629.76V774.826667A54.613333 54.613333 0 0 0 356.010667 827.733333h485.717333a54.272 54.272 0 0 0 55.978667-52.906666V629.76a54.613333 54.613333 0 0 0-55.978667-52.906667z m-484.010667 58.026667h482.304V769.706667H357.717333z m273.066667-694.613333H143.701333a54.613333 54.613333 0 0 0-55.978666 52.906666V138.24a54.613333 54.613333 0 0 0 55.978666 52.906667h485.717334a54.954667 54.954667 0 0 0 56.32-52.906667v-145.066667A54.954667 54.954667 0 0 0 629.418667-59.733333zM145.408-1.706667h482.304v134.826667H145.408z m716.8 38.570667h-187.050667v62.805333h186.368a11.946667 11.946667 0 0 1 11.946667 11.946667v238.933333a11.946667 11.946667 0 0 1-11.946667 11.605334H162.474667a74.752 74.752 0 0 0-74.752 75.093333V657.066667a74.752 74.752 0 0 0 74.752 74.069333h167.936v-62.805333H162.474667a11.946667 11.946667 0 0 1-11.946667-11.264v-218.453334a11.946667 11.946667 0 0 1 11.946667-11.605333h699.050666a74.752 74.752 0 0 0 74.752-74.752V110.933333a74.752 74.752 0 0 0-74.752-74.752z m-252.586667 311.296l-3.413333-3.072a63.146667 63.146667 0 0 0-45.397333-19.114667 64.512 64.512 0 0 0-45.397334 19.114667l-3.413333 3.072a63.488 63.488 0 0 0 0 90.794667l3.072 3.413333a65.536 65.536 0 0 0 45.397333 18.773333 64.170667 64.170667 0 0 0 45.397334-18.773333l3.413333-3.413333a64.512 64.512 0 0 0 0-90.794667z m0 0"  horiz-adv-x="1024" />

    
    <glyph glyph-name="zhijian1" unicode="&#59308;" d="M384 407.466667l-128-2.133334v2.133334c-12.8 4.266667-21.333333 17.066667-21.333333 29.866666s8.533333 25.6 21.333333 29.866667V469.333333h128v-2.133333c12.8-4.266667 21.333333-17.066667 21.333333-29.866667s-8.533333-25.6-21.333333-29.866666z m128 230.4c12.8-4.266667 21.333333-17.066667 21.333333-29.866667s-8.533333-25.6-21.333333-29.866667v-2.133333H256v2.133333c-12.8 4.266667-21.333333 17.066667-21.333333 29.866667s8.533333 25.6 21.333333 29.866667V640l256-2.133333zM800 512c-14.933333 0-25.6 6.4-32 21.333333v140.8c0 27.733333-14.933333 51.2-42.666667 51.2H221.866667c-27.733333 0-53.333333-23.466667-53.333334-51.2v-565.333333c0-29.866667 23.466667-66.133333 53.333334-66.133333h213.333333c17.066667 0 32-14.933333 32-32s-14.933333-32-32-32h-213.333333c-64 0-115.2 66.133333-115.2 130.133333V674.133333C106.666667 738.133333 160 789.333333 221.866667 789.333333H725.333333c29.866667 0 64-10.666667 85.333334-34.133333 21.333333-21.333333 21.333333-51.2 21.333333-81.066667V533.333333c-6.4-14.933333-17.066667-21.333333-32-21.333333z m74.666667-104.533333l42.666666-10.666667v-215.466667c0-32-10.666667-61.866667-32-85.333333-19.2-23.466667-42.666667-44.8-68.266666-61.866667-34.133333-21.333333-68.266667-38.4-106.666667-53.333333l-8.533333-2.133333-8.533334 2.133333c-8.533333 2.133333-204.8 70.4-204.8 200.533333V396.8l40.533334 10.666667c46.933333 10.666667 89.6 29.866667 130.133333 55.466666l42.666667 27.733334 42.666666-27.733334c40.533333-23.466667 83.2-42.666667 130.133334-55.466666z m-14.933334-226.133334v170.666667h-2.133333c-51.2 12.8-100.266667 34.133333-145.066667 61.866667l-10.666666 6.4-12.8-8.533334c-44.8-27.733333-93.866667-49.066667-142.933334-61.866666h-2.133333v-170.666667c4.266667-36.266667 25.6-68.266667 57.6-87.466667 29.866667-23.466667 64-40.533333 100.266667-55.466666 36.266667 12.8 70.4 32 100.266666 55.466666 32 21.333333 53.333333 53.333333 57.6 89.6z"  horiz-adv-x="1024" />

    
    <glyph glyph-name="dingzhi" unicode="&#58900;" d="M512.000512-70.31316c-16.043395 0-31.242562 3.673669-42.796712 10.344602L148.91203 124.950036c-23.998577 13.855566-42.797735 46.416146-42.797735 74.127278L106.114295 568.918593c0 27.711132 18.799158 60.271712 42.797735 74.127278L469.202777 827.968557c11.555174 6.670933 26.754341 10.344602 42.797735 10.344602s31.242562-3.674693 42.797735-10.345626l320.2887-184.921663c23.998577-13.855566 42.797735-46.416146 42.797735-74.127278l0-369.840256c0-27.712155-18.799158-60.272735-42.797735-74.127278L554.79927-59.968557C543.244097-66.63949 528.04493-70.31316 512.000512-70.31316zM512.000512 817.848059c-12.326746 0-24.196075-2.771113-32.564673-7.603165L159.145092 625.322208c-17.652032-10.19213-32.564673-36.021401-32.564673-56.403614l0-369.840256c0-20.382213 14.912641-46.211485 32.564673-56.403614l320.29177-184.918593c8.368598-4.832052 20.237927-7.603165 32.56365-7.603165 12.326746 0 24.197098 2.771113 32.565696 7.603165l320.287677 184.918593c17.652032 10.191106 32.564673 36.020378 32.564673 56.403614L897.418558 568.918593c0 20.382213-14.912641 46.212508-32.564673 56.403614L544.565185 810.243871C536.195563 815.076946 524.327258 817.848059 512.000512 817.848059zM741.101373 477.889367 458.74561 195.522348l-8.442276 8.442276 8.442276-8.442276L265.438976 142.552949l0 0 7.810896 24.183795 48.345078 161.395854 10.673084-6.128581-10.673084 6.128581 284.587594 284.668435c23.288402 23.291472 61.033052 23.291472 84.320431 0l50.586119-50.586119C764.381589 538.924465 764.381589 501.180839 741.101373 477.889367L741.101373 477.889367 741.101373 477.889367zM300.381813 174.331723l143.732565 40.271192 14.872732 14.896268-101.187587 101.186564-15.026228-15.003715L300.381813 174.331723 300.381813 174.331723 300.381813 174.331723zM374.66054 347.547787l101.198843-101.199866 197.781552 197.805088-101.18554 101.186564L374.66054 347.547787 374.66054 347.547787 374.66054 347.547787zM719.289602 550.288281l-40.71019 40.711214c-23.290449 23.291472-37.184901 23.291472-60.461023 0l-28.79072-28.810163 101.187587-101.174284 28.786627 28.797883C742.582097 513.105427 742.582097 526.996808 719.289602 550.288281L719.289602 550.288281 719.289602 550.288281zM442.40955 588.127074c-23.291472 23.288402-37.195134 23.288402-60.482513 0l-96.250134-96.237855-16.865109 16.86204 101.186564 101.186564c23.293519 23.291472 61.036122 23.291472 84.325547 0l55.735395-55.738465-16.861016-16.86204L442.40955 588.127074 442.40955 588.127074 442.40955 588.127074zM327.833025 483.446943l33.736359 33.735335 16.871249-16.86204-33.734312-33.735335-2.004657 2.004657 18.85544-18.877953 50.585095 50.608631 16.874319-16.873296-50.586119-50.587142 5.151323-5.151323-16.873296-16.86204-81.044828 81.042781 16.875343 16.86204L327.833025 483.446943 327.833025 483.446943 327.833025 483.446943zM563.952744 247.338481l50.586119-50.587142 25.305339-25.306362 79.373769 79.398328c23.290449 23.292496 23.290449 37.195134 0 60.486606l-53.232388 53.233412 16.861016 16.86204 58.182121-58.182121c23.292496-23.289426 23.292496-61.033052 0-84.324524l-84.320431-84.320431-16.864086-16.865109-16.863063 16.865109L539.493679 238.082676l16.863063 16.863063L563.952744 247.338481 563.952744 247.338481 563.952744 247.338481zM631.411135 281.06256l-50.586119-50.587142-16.872273 16.863063 50.586119 50.611701L631.411135 281.06256 631.411135 281.06256 631.411135 281.06256zM639.845225 255.780757l16.863063-16.874319-42.155099-42.154076L597.690126 213.625658 639.845225 255.780757 639.845225 255.780757 639.845225 255.780757zM639.845225 255.780757"  horiz-adv-x="1024" />

    
    <glyph glyph-name="tishengxiaoshuai" unicode="&#58901;" d="M611.679365-32.425099c-9.55749 0-19.11498 0-28.67247-9.55749-19.11498 0-38.22996-28.67247-28.672471-47.787451 0-9.55749 9.55749-19.11498 19.114981-28.67247 9.55749-9.55749 19.11498-9.55749 28.67247-9.55749 9.55749 0 19.11498 0 28.67247 9.55749 19.11498 9.55749 38.22996 38.22996 28.67247 57.344941-9.55749 19.11498-28.67247 38.22996-47.78745 28.67247z m296.282192 554.334424c0-9.55749 9.55749-19.11498 19.11498-19.11498 9.55749-9.55749 28.67247-9.55749 38.229961-9.55749 19.11498 9.55749 28.67247 28.67247 28.67247 47.78745 0 9.55749-9.55749 19.11498-9.55749 28.672471-19.11498 28.67247-38.22996 38.22996-57.344941 28.67247-19.11498-9.55749-38.22996-38.22996-28.67247-57.344941 9.55749-9.55749 9.55749-9.55749 9.55749-19.11498zM745.484226 24.919841c-9.55749 0-19.11498-9.55749-28.67247-9.55749-19.11498-9.55749-19.11498-38.22996-9.55749-57.34494 0-9.55749 9.55749-19.11498 19.11498-19.11498h28.67247c9.55749 9.55749 19.11498 19.11498 28.67247 19.11498 19.11498 9.55749 28.67247 38.22996 9.55749 57.34494-9.55749 19.11498-28.67247 28.67247-47.78745 9.55749z m267.609722 382.299603c0 19.11498-19.11498 38.22996-38.22996 38.229961s-38.22996-19.11498-38.229961-38.229961v-28.67247c0-9.55749 9.55749-28.67247 19.114981-38.22996 9.55749 0 19.11498-9.55749 19.11498-9.55749 19.11498 0 38.22996 19.11498 38.22996 38.22996v38.22996zM907.961557 139.609722c-19.11498 9.55749-47.78745 9.55749-57.34494-9.55749-9.55749-9.55749-9.55749-19.11498-19.11498-19.11498-19.11498-19.11498-9.55749-47.78745 0-57.344941 19.11498-19.11498 47.78745-19.11498 57.34494 0 9.55749 9.55749 9.55749 19.11498 19.11498 28.672471 19.11498 9.55749 9.55749 38.22996 0 57.34494z m57.344941 143.362351c-19.11498 9.55749-47.78745 0-47.787451-28.67247 0-9.55749-9.55749-19.11498-9.55749-28.67247-9.55749-19.11498 0-38.22996 19.11498-47.787451 0 0 9.55749 0 9.55749-9.55749 19.11498-9.55749 47.78745 0 47.787451 19.114981 0 9.55749 9.55749 19.11498 9.55749 28.67247 0 38.22996-9.55749 57.34494-28.67247 66.90243zM430.087053-32.425099c-38.22996 0-66.902431 9.55749-105.13239 28.67247-9.55749 0-19.11498 9.55749-19.114981 9.55749-19.11498 9.55749-28.67247 19.11498-47.78745 28.67247C66.902431 168.282192 19.11498 435.891914 152.919841 627.041716c38.22996 47.78745 66.902431 76.459921 114.689881 105.132391 143.362351 95.574901 324.954663 105.132391 477.874504 0l-38.22996-38.22996c-9.55749-9.55749 0-19.11498 9.55749-19.114981L860.174107 684.386656c19.11498 0 28.67247 19.11498 19.11498 28.672471L841.059127 846.863988c0 19.11498-19.11498 19.11498-19.11498 0l-28.672471-38.229961C678.581795 885.093948 554.334424 913.766418 420.529563 885.093948c-9.55749 0-28.67247 0-38.22996-9.55749-114.689881-28.67247-210.264782-95.574901-277.167212-191.149802-9.55749 0-19.11498-9.55749-19.11498-19.11498-57.34494-95.574901-86.017411-200.707292-86.017411-305.839682v-57.344941c19.11498-105.132391 66.902431-200.707292 143.362351-277.167212 28.67247-19.11498 47.78745-38.22996 76.459921-57.34494 57.34494-47.78745 124.247371-76.459921 200.707291-86.017411 19.11498 0 47.78745 9.55749 47.787451 28.67247 0 28.67247-19.11498 47.78745-38.229961 57.344941zM477.874504 713.059127c-9.55749 0-28.67247-9.55749-28.67247-28.672471v-334.512152l296.282192-152.919841H764.599206c9.55749 0 19.11498 9.55749 28.67247 19.11498 9.55749 19.11498 0 38.22996-9.55749 47.78745L516.104464 388.104464v286.724702c0 28.67247-19.11498 38.22996-38.22996 38.229961z"  horiz-adv-x="1024" />

    
    <glyph glyph-name="cuowuxinxi" unicode="&#58914;" d="M815.858 260.652c2.787 15.395 4.195 32.196 4.195 47.591V397.83c76.999 8.392 138.585 74.184 138.585 152.581 0 15.395-12.597 27.991-27.99 27.991-15.404 0-28-12.597-28-27.991 0-48.989-34.995-88.197-82.595-96.589v19.59c0 50.407-40.578 86.789-99.386 110.584-1.398 106.389-88.178 191.78-195.966 191.78-104.991 0-190.381-81.194-195.984-183.379-72.785-22.387-124.571-61.585-124.571-118.985v-16.792c-41.986 11.198-72.793 48.998-72.793 95.189 0 15.395-12.597 27.991-27.991 27.991-15.404 0-28-12.597-28-27.991 0-75.59 55.992-139.992 128.785-151.181v-90.986c0-16.793 1.399-33.595 4.196-48.989-69.987-14.004-123.182-76.998-123.182-151.181 0-15.404 12.587-28.001 27.992-28.001 15.413 0 28.009 12.597 28.009 28.001 0 47.589 34.984 88.188 81.176 96.589 43.405-118.986 156.778-202.979 289.749-202.979 134.399 0 247.78 85.381 289.777 204.367 50.396-4.195 89.586-46.192 89.586-97.978 0-15.404 12.588-28.001 27.99-28.001 15.405 0 28.011 12.597 28.011 28.001-0.001 76.979-57.401 139.974-131.593 151.181z m-292.555 460.54c69.988 0 128.776-51.805 138.566-118.996-46.173 11.198-97.968 15.404-151.163 15.404-43.404 0-85.39-2.798-125.987-11.199 12.596 65.783 69.995 114.791 138.584 114.791z m240.768-412.949c0-138.584-113.4-250.578-251.985-250.578-138.566 0-251.948 111.994-251.948 250.578V474.819c0 47.591 113.382 88.188 251.948 88.188 68.607 0 135.797-9.799 183.397-26.601 25.185-9.791 68.588-29.391 68.588-60.188v-167.975zM526.101 292.849c-4.196 0-7.003 1.39-11.198 1.39-4.196-1.39-6.994-1.39-11.198-1.39h22.396zM514.902 294.238c16.811 4.195 29.398 19.6 30.807 37.801l6.983 89.586c1.409 20.998-13.995 39.19-36.392 39.19h-5.595c-20.998 0-37.801-18.192-36.401-39.19l7.003-89.586c4.196-18.201 16.802-32.196 33.595-37.801z m-41.997-71.385c0-23.19 18.807-41.996 41.997-41.996 23.189 0 41.996 18.806 41.996 41.996 0 23.191-18.807 41.986-41.996 41.986-23.19 0-41.997-18.795-41.997-41.986z"  horiz-adv-x="1024" />

    
    <glyph glyph-name="shujuanquan" unicode="&#60084;" d="M512 896H0v-512c0-282.624 252.635429-420.864 505.124571-512C791.552-29.842286 1024 101.376 1024 384V896z m468.114286-512c0-212.114286-137.801143-347.574857-474.697143-465.481143C186.368 36.425143 43.885714 180.370286 43.885714 384V852.114286h936.228572zM303.104 717.238857a21.942857 21.942857 0 1 1-43.885714 0v-453.485714a21.942857 21.942857 0 0 1 21.942857-21.942857h497.371428a21.942857 21.942857 0 0 1 0 43.885714h-475.428571zM485.083429 557.202286l-146.285715-146.285715 31.012572-31.012571 130.779428 130.779429 57.636572-57.636572a21.942857 21.942857 0 0 1 31.012571 0l138.093714 138.093714v-49.444571h43.885715v102.4a21.942857 21.942857 0 0 1-21.942857 21.942857h-102.4v-43.885714h49.444571l-122.587429-122.587429-57.636571 57.636572a21.942857 21.942857 0 0 1-31.012571 0z"  horiz-adv-x="1024" />

    
    <glyph glyph-name="dingzhi1" unicode="&#59087;" d="M1007.542857 444.342857h-60.342857c-9.142857 73.142857-38.4 140.8-85.942857 199.314286l42.057143 42.057143c9.142857 12.8 3.657143 29.257143-9.142857 38.4l-38.4 38.4c-9.142857 9.142857-29.257143 16.457143-38.4 9.142857l-42.057143-42.057143c-60.342857 42.057143-128 73.142857-199.314286 80.457143V874.057143c0 16.457143-16.457143 21.942857-34.742857 21.942857h-54.857143c-16.457143 0-34.742857-9.142857-34.742857-21.942857v-67.657143C385.828571 797.257143 316.342857 768 261.485714 724.114286l-47.542857 47.542857c-12.8 12.8-29.257143 3.657143-38.4-9.142857l-36.571428-38.4c-12.8-7.314286-21.942857-25.6-9.142858-38.4L175.542857 640c-42.057143-54.857143-67.657143-124.342857-80.457143-192h-73.142857c-16.457143 0-21.942857-16.457143-21.942857-34.742857v-54.857143c0-16.457143 9.142857-34.742857 21.942857-34.742857h73.142857c12.8-73.142857 38.4-137.142857 80.457143-192l-51.2-51.2c-9.142857-9.142857-3.657143-29.257143 9.142857-38.4l42.057143-38.4c9.142857-9.142857 29.257143-16.457143 38.4-9.142857l47.542857 47.542857c54.857143-42.057143 124.342857-73.142857 195.657143-80.457143v-67.657143c0-16.457143 16.457143-21.942857 34.742857-21.942857h54.857143c16.457143 0 34.742857 9.142857 34.742857 21.942857v64c34.742857 3.657143 73.142857 12.8 106.057143 25.6 16.457143 9.142857 25.6 25.6 16.457143 42.057143-9.142857 16.457143-25.6 25.6-42.057143 16.457143-42.057143-16.457143-89.6-25.6-137.142857-25.6C325.485714 18.285714 162.742857 179.2 162.742857 380.342857c-3.657143 204.8 157.257143 365.714286 358.4 365.714286 201.142857 0 362.057143-160.914286 362.057143-362.057143 0-47.542857-9.142857-93.257143-29.257143-140.8-9.142857-16.457143 0-38.4 16.457143-42.057143 16.457143-3.657143 38.4 0 42.057143 16.457143 12.8 34.742857 25.6 67.657143 29.257143 106.057143h60.342857c16.457143 0 21.942857 16.457143 21.942857 34.742857v54.857143c3.657143 12.8-3.657143 31.085714-16.457143 31.085714M897.828571 91.428571L693.028571 294.4h-3.657142c16.457143 29.257143 25.6 64 25.6 96.914286 0 109.714286-89.6 202.971429-195.657143 202.971428h-38.4c-16.457143 0-34.742857-12.8-34.742857-34.742857 0-16.457143 12.8-34.742857 34.742857-34.742857h38.4c67.657143 0 131.657143-64 131.657143-138.971429 0-71.314286-60.342857-135.314286-131.657143-135.314285-34.742857 0-71.314286 16.457143-102.4 42.057143-29.257143 25.6-47.542857 58.514286-47.542857 93.257142 0 16.457143-12.8 34.742857-34.742858 34.742858-16.457143 0-34.742857-12.8-34.742857-34.742858 0-106.057143 102.4-202.971429 212.114286-202.971428 29.257143 0 60.342857 9.142857 84.114286 21.942857 0 0 0-3.657143 3.657143-3.657143l208.457142-201.142857c3.657143-3.657143 12.8-9.142857 16.457143-12.8 21.942857-9.142857 51.2-9.142857 67.657143 12.8 16.457143 16.457143 21.942857 45.714286 12.8 67.657143 0 12.8-3.657143 16.457143-7.314286 23.771428"  horiz-adv-x="1025" />

    
    <glyph glyph-name="cunhuo" unicode="&#58929;" d="M87.238 619.251c1.132 1.82 2.278 3.626 3.511 5.375l4.702 9.02-8.213-14.395zM87.238 619.251c-2.119-3.33-4.12-6.733-5.891-10.273l5.891 10.273zM935.604 621.564l0.507-0.5-8.561 11.071c-15.106 18.123-35.245 32.212-58.389 39.264L600.347 829.967c-25.176 14.597-55.37 23.158-87.598 23.158-32.213 0-62.422-8.561-88.599-23.659L129.667 659.821c-15.672-8.953-28.817-20.966-38.917-35.195l-1.857-3.562c-13.582-19.639-22.143-44.307-22.143-70.983v-330.226c0-46.317 25.175-86.582 62.422-108.731l320.66-184.743c18.123-10.571 39.758-16.614 62.917-16.614 23.172 0 44.806 6.043 63.437 17.114l319.15 184.243c37.743 22.149 62.917 62.414 62.917 109.231V550.588c0 26.678-8.562 50.837-22.649 70.976z m-491.3 174.674c19.618 11.579 43.283 18.123 68.444 18.123 25.174 0 48.84-6.544 68.967-18.624l294.483-170.146c7.907-4.563 20.529-16.781 20.529-16.781l-383.98-202.699-380.05 207.4c6.37 6.371 13.974 11.731 22.244 15.832L444.304 796.238zM338.075 456.956v-193.81l-96.651 54.37V509.809l96.651-52.853zM149.313 144.847c-26.177 15.611-43.299 43.296-43.299 75.009V550.588c0 11.072 2.017 21.644 6.036 31.212l91.109-50.844v-235.59l174.18-100.679V435.813l115.776-63.275V-49.14c-8.692 2.052-16.861 5.367-24.159 9.751L149.313 144.847z m770.184 74.501c0-32.213-17.122-59.897-42.79-75.003L556.047-39.89c-7.327-4.395-15.525-7.56-24.175-9.469V372.256l382.081 208.536c3.526-9.062 5.544-19.632 5.544-30.71v-330.734zM169.946 635.153a88.54 88.54 0 0 1-15.003-5.81l-5.63-3.251 20.633 9.061z"  horiz-adv-x="1024" />

    
    <glyph glyph-name="cunhuogongshi" unicode="&#59122;" d="M511.8 305.4c-13 0-26 3.4-37.6 10.1l-161.6 93.7c-23.1 13.4-37.4 38.2-37.4 64.9V661.8c0 26.7 14.3 51.5 37.4 64.9l161.6 93.7c23.2 13.4 52 13.4 75.2 0L711 726.6c23.1-13.4 37.4-38.2 37.4-64.9V474c0-26.7-14.3-51.5-37.4-64.9l-161.6-93.7c-11.6-6.6-24.6-10-37.6-10z m0 475c-4.3 0-8.7-1.1-12.5-3.4l-161.6-93.7c-7.7-4.5-12.5-12.7-12.5-21.6V474c0-8.9 4.8-17.2 12.5-21.6l161.6-93.7c7.7-4.5 17.3-4.5 25.1 0L686 452.5c7.7 4.5 12.5 12.7 12.5 21.6V661.8c0 8.9-4.8 17.2-12.5 21.6L524.3 777c-3.8 2.3-8.2 3.4-12.5 3.4zM301.2-61.3c-13 0-26 3.4-37.6 10.1L102 42.4c-23.1 13.4-37.4 38.2-37.4 64.9V295c0 26.7 14.3 51.5 37.4 64.9l161.6 93.7c23.2 13.4 52 13.4 75.2 0l161.6-93.7c23.1-13.4 37.4-38.2 37.4-64.9v-187.7c0-26.7-14.3-51.5-37.4-64.9l-161.6-93.7c-11.6-6.6-24.6-10-37.6-10z m0 474.9c-4.3 0-8.7-1.1-12.5-3.4L127 316.6c-7.7-4.5-12.5-12.7-12.5-21.6v-187.7c0-8.9 4.8-17.2 12.5-21.6L288.7-8c7.7-4.5 17.3-4.5 25.1 0l161.6 93.7c7.7 4.5 12.5 12.7 12.5 21.6V295c0 8.9-4.8 17.2-12.5 21.6l-161.6 93.7c-3.9 2.2-8.3 3.3-12.6 3.3zM722.4-61.3c-13 0-26 3.4-37.6 10.1l-161.6 93.7c-23.1 13.4-37.4 38.2-37.4 64.9V295c0 26.7 14.3 51.5 37.4 64.9l161.6 93.7c23.2 13.4 52 13.4 75.2 0l161.6-93.7c23.1-13.4 37.4-38.2 37.4-64.9v-187.7c0-26.7-14.3-51.5-37.4-64.9L760-51.2c-11.6-6.7-24.6-10.1-37.6-10.1z m0 474.9c-4.3 0-8.7-1.1-12.5-3.4l-161.6-93.7c-7.7-4.5-12.5-12.7-12.5-21.6v-187.7c0-8.9 4.8-17.2 12.5-21.6L709.8-8c7.7-4.5 17.3-4.5 25.1 0l161.6 93.7c7.7 4.5 12.5 12.7 12.5 21.6V295c0 8.9-4.8 17.2-12.5 21.6l-161.6 93.7c-3.9 2.2-8.2 3.3-12.5 3.3zM302.3 162.8L81.1 293.7l25.5 43 194.7-115.2 190 121.7 27-42.1zM276.8 201.9h50v-238.2h-50zM726.4 162.8L505.2 293.7l25.5 43 194.7-115.2 190 121.7 27-42.1zM700.9 201.9h50v-238.2h-50zM512.6 538L291.4 668.9l25.5 43 194.7-115.2 190 121.7 27-42.1zM487.1 577.1h50v-238.2h-50zM427.5 508.2L356.4 549c-11.9 7-15.9 22.3-8.9 34.2 7 11.9 22.3 15.9 34.2 8.9l71.1-40.9c11.9-7 15.9-22.3 8.9-34.2-7-11.8-22.3-15.8-34.2-8.8zM219.5 128.2l-71.1 40.9c-11.9 7-15.9 22.3-8.9 34.2 7 11.9 22.3 15.9 34.2 8.9l71.1-40.9c11.9-7 15.9-22.3 8.9-34.2-7-11.8-22.3-15.8-34.2-8.9zM643.9 128.2l-71.1 40.9c-11.9 7-15.9 22.3-8.9 34.2 7 11.9 22.3 15.9 34.2 8.9l71.1-40.9c11.9-7 15.9-22.3 8.9-34.2-6.9-11.8-22.3-15.8-34.2-8.9z"  horiz-adv-x="1024" />

    
    <glyph glyph-name="wrong" unicode="&#59327;" d="M976.920576 785.7408c-4.998144 5.00224-10.908672 7.27552-17.729536 7.27552H68.509696c-6.81984 0-12.729344-2.27328-17.731584-7.27552-4.54656-4.545536-7.274496-10.458112-7.274496-17.731584v-769.287168c0-6.81984 2.727936-12.730368 7.274496-17.733632 5.00224-4.54656 10.911744-7.272448 17.731584-7.272448H959.19104c6.820864 0 12.732416 2.724864 17.729536 7.272448 4.545536 5.004288 7.277568 10.913792 7.277568 17.733632V768.009216c0.001024 7.273472-2.731008 13.185024-7.277568 17.731584z m-42.733568-124.123136H819.152896V743.00416h115.034112v-81.386496z m-165.047296 81.385472v-81.386496H93.515776v81.386496h675.623936zM934.187008 611.60448v-587.876352H93.515776V611.60448h840.671232zM334.486528 497.031168v-0.45568c-47.739904-47.73888-71.38304-105.02656-71.38304-172.314624 0-67.291136 23.64416-124.576768 71.38304-172.316672 47.285248-47.73888 105.024512-71.382016 172.31872-71.382016 67.288064 0 124.573696 23.643136 172.3136 71.382016 47.73888 47.739904 71.380992 105.025536 71.380992 172.316672 0 67.288064-23.642112 124.575744-71.380992 172.314624v0.45568c-47.739904 47.285248-105.025536 71.380992-171.862016 70.92736h-0.451584c-67.294208 0.453632-125.033472-23.642112-172.31872-70.92736z m35.462144-35.464192c37.735424 37.737472 83.202048 56.832 136.856576 56.379392h0.451584c53.195776 0.452608 98.6624-18.64192 136.397824-56.379392 37.736448-38.191104 56.833024-83.657728 56.833024-137.306112 0-53.193728-19.096576-98.660352-56.833024-136.853504-37.736448-38.193152-83.202048-56.832-136.850432-56.832-53.1968 0-99.121152 18.638848-136.856576 56.832-38.188032 38.194176-56.832 83.659776-56.832 136.853504 0 53.648384 18.643968 99.115008 56.833024 137.306112zM578.639872 422.921216c-7.276544 0-13.187072-2.27328-17.733632-7.273472l-55.469056-55.469056-59.558912 62.288896c-4.54656 4.999168-10.457088 7.272448-17.276928 7.727104-7.277568 0-13.187072-2.27328-18.18624-7.274496-5.004288-4.54656-7.277568-10.457088-7.730176-17.275904 0-6.81984 2.27328-12.730368 7.272448-17.731584l60.015616-63.197184-62.741504-62.288896c-4.54656-5.000192-7.273472-10.913792-7.273472-17.733632 0-7.272448 2.726912-13.182976 7.273472-17.728512 4.999168-5.005312 10.913792-7.277568 17.733632-7.277568 7.272448 0 13.182976 2.27328 17.728512 7.277568l62.288896 61.37856 58.653696-60.926976c4.54656-4.999168 10.456064-7.730176 17.275904-7.730176 6.81984-0.451584 12.730368 1.820672 17.728512 6.81984 5.005312 4.54656 7.7312 10.461184 7.7312 17.281024 0.456704 7.272448-1.815552 13.182976-6.81984 18.18624l-59.559936 61.833216 56.37632 56.377344c4.54656 5.00224 7.277568 10.91072 7.277568 17.731584 0 7.274496-2.731008 13.186048-7.277568 17.732608-4.999168 5.000192-10.908672 7.273472-17.728512 7.273472z"  horiz-adv-x="1024" />

    
    <glyph glyph-name="gengxin" unicode="&#59053;" d="M512-50.176c-65.024 0-128 14.336-186.368 41.984-7.168 3.584-12.8 10.24-13.824 18.432-1.536 8.192 1.024 15.872 7.168 22.016l14.336 14.336c7.168 7.168 18.432 9.216 28.16 5.12 48.128-22.016 98.816-33.28 151.04-33.28 201.216 0 365.568 163.84 365.568 365.568 0 51.712-11.264 102.4-33.792 151.552l-69.12 140.8 196.608-99.84-57.856-28.672c21.504-52.224 32.256-107.52 32.256-163.84 0-239.616-194.56-434.176-434.176-434.176z m-262.656 141.824l-196.608 99.84 57.344 28.16c-21.504 52.224-32.256 107.52-32.256 163.84 0 239.616 194.56 434.176 434.176 434.176 65.024 0 128-14.336 186.368-41.984 7.168-3.584 12.8-10.24 13.824-18.432 1.536-8.192-1.024-15.872-7.168-22.016l-14.336-14.336c-7.168-7.168-18.432-9.216-28.16-5.12-48.128 22.016-98.816 33.28-151.04 33.28-201.728 0-365.568-163.84-365.568-365.568 0-51.712 11.264-102.4 33.792-151.552l69.632-140.288z m272.384 92.16h-9.216c-13.824 0-25.088 11.264-25.088 25.088V481.792c0 3.072-2.56 4.096-3.072 4.608-0.512 0.512-3.072 1.024-5.632-1.024l-141.312-141.312c-5.632-5.632-15.36-5.632-20.992 0l-13.824 13.824c-2.56 2.56-4.608 6.656-4.608 10.752s1.536 7.68 4.608 10.752l191.488 191.488c4.608 4.608 11.264 7.168 17.92 7.168s12.8-2.56 17.92-7.168l191.488-191.488c5.632-5.632 5.632-15.36 0-20.992l-13.824-13.824c-5.632-5.632-15.36-5.632-20.992 0l-141.312 141.312c-2.048 2.048-4.608 1.536-5.632 1.024-0.512-0.512-3.072-1.536-3.072-4.608v-283.136c0-8.704-6.656-15.36-14.848-15.36z"  horiz-adv-x="1024" />

    
    <glyph glyph-name="cunhuo1" unicode="&#58911;" d="M657.152 64H366.848a128 128 0 1 0-221.76 0H64a64 64 0 0 0-64 64v64a64 64 0 0 0 64 64h64V512a64 64 0 0 0 64 64h128V832a64 64 0 0 0 64 64h256a64 64 0 0 0 64-64v-256h128a64 64 0 0 0 64-64v-256h64a64 64 0 0 0 64-64v-64a64 64 0 0 0-64-64h-81.152a128 128 0 1 0-221.76 0zM384 576h256V832H384v-256z m160-64v-256H832V512H544z m-64 0H192v-256h288V512z m480-320H64v-64h896v64z m-288 256h64a32 32 0 1 0 0-64h-64a32 32 0 1 0 0 64z m-384 0h64a32 32 0 0 0 0-64h-64a32 32 0 0 0 0 64z m192 320h64a32 32 0 0 0 0-64h-64a32 32 0 0 0 0 64zM256-64a64 64 0 1 1 0 128 64 64 0 0 1 0-128z m512 0a64 64 0 1 1 0 128 64 64 0 0 1 0-128z"  horiz-adv-x="1024" />

    
    <glyph glyph-name="gengxin1" unicode="&#59190;" d="M934.2 396.5c-13.7 0-24.8-11.1-24.8-24.8 0-219.1-178.2-397.3-397.3-397.3S114.7 152.6 114.7 371.7 292.9 769 512 769c92.8 0 181.3-32.4 252.4-91l-75.2-35.3c-12.4-5.8-17.8-20.6-11.9-33 4.2-9 13.2-14.3 22.5-14.3 3.5 0 7.1 0.8 10.5 2.4l134.8 63.4c12.4 5.8 17.8 20.6 11.9 33L793.7 829c-5.8 12.4-20.7 17.8-33 11.9-12.4-5.8-17.8-20.6-11.9-33l40.3-85.7c-78.7 62.3-175.7 96.5-277 96.5-246.5 0-447-200.5-447-447s200.5-447 447-447 447 200.5 447 447c-0.1 13.7-11.2 24.8-24.9 24.8zM487.2 620c-13.7 0-24.8-11.1-24.8-24.8v-298c0-13.7 11.1-24.8 24.8-24.8h248.3c13.7 0 24.8 11.1 24.8 24.8S749.2 322 735.5 322H512V595.2c0 13.7-11.1 24.8-24.8 24.8z"  horiz-adv-x="1024" />

    
    <glyph glyph-name="yunying" unicode="&#59031;" d="M553.307329 399.195639a39.198546 39.198546 0 0 1-11.474258 7.19467L403.149606 492.850394l87.700545-137.939189c1.736644-4.217565 4.217565-8.062992 7.19467-11.412235l1.116415-1.736644 0.310115 0.310115a39.198546 39.198546 0 1 1 55.262507 55.820715l0.310115 0.186069-1.736644 1.116414zM504.80533 692.378437h-0.186069l-11.660327-0.062023 0.62023-141.164385h0.124046a24.002907 24.002907 0 0 1 48.005815 0.930345V553.63295l1.054391 88.878982c120.138583-16.746214 202.257056-109.036463 202.815264-233.826771 0.62023-137.008843-102.524046-238.354452-239.53289-238.912659-136.94682-0.62023-236.989945 101.903816-237.548152 238.850635-0.372138 69.527801 25.801575 131.488795 71.698607 176.765597a17.242399 17.242399 0 0 1 2.046759 1.984737c6.512417 7.19467 3.597335 18.854997-3.845427 25.553482-6.698486 6.078256-22.576378 5.520048-29.150817 0.124046h-0.062023l-0.372139-0.310115a16.001938 16.001938 0 0 1-1.550575-1.488552l-0.062023-0.186069a283.817323 283.817323 0 1 1 197.60533 81.374197zM891.146699 151.103574c-10.48189-16.684191-24.188976-35.353119-41.059237-55.944761a356.13616 356.13616 0 0 0-66.364627-63.263477 464.366323 464.366323 0 0 0-287.414658-99.050757 466.227014 466.227014 0 1 0 466.289037 466.227014 463.311932 463.311932 0 0 0-71.450515-247.905996z m-38.950454 22.82447a22.762447 22.762447 0 0 0 1.488552 2.915081A420.70212 420.70212 0 1 1 75.66808 399.00957a420.70212 420.70212 0 0 1 682.625318-329.342217c25.615506 21.521987 44.532526 39.0745 56.937129 52.719564 10.978074 12.156511 23.382677 29.336887 37.027741 51.541127z"  horiz-adv-x="1025" />

    
    <glyph glyph-name="yingxiao-" unicode="&#58903;" d="M510 255.70000000000005c-75.8 0-137.5 61.7-137.5 137.5 0 5.4 0.3 10.8 0.9 16.1 1.2 9.9 10.1 16.9 20 15.8 9.9-1.2 16.9-10.1 15.8-20-0.5-3.9-0.7-7.9-0.7-11.9 0-56 45.5-101.5 101.5-101.5s101.5 45.5 101.5 101.5S566 494.7 510 494.7c-3.5 0-7-0.2-10.5-0.5-9.9-1-18.7 6.2-19.7 16.1-1 9.9 6.2 18.7 16.1 19.7 4.7 0.5 9.4 0.7 14.1 0.7 75.8 0 137.5-61.7 137.5-137.5S585.8 255.70000000000005 510 255.70000000000005zM510 96.60000000000002c-79.2 0-153.7 30.9-209.8 86.9-56 56-86.9 130.5-86.9 209.8 0 30.1 4.5 59.7 13.3 88.2 3 9.5 13 14.8 22.5 11.8s14.8-13 11.8-22.5c-7.8-25-11.7-51.1-11.7-77.5 0-143.7 116.9-260.6 260.6-260.6s260.6 116.9 260.6 260.6S653.7 653.8 510 653.8c-26.3 0-52.2-3.9-77.1-11.6-9.5-2.9-19.6 2.4-22.5 11.9-2.9 9.5 2.4 19.6 11.9 22.5 28.3 8.8 57.8 13.2 87.7 13.2 79.2 0 153.7-30.9 209.8-86.9 56-56 86.9-130.5 86.9-209.8 0-79.2-30.9-153.7-86.9-209.8-56.1-55.9-130.6-86.7-209.8-86.7zM510-64.70000000000005c-61.8 0-121.8 12.1-178.2 36-54.5 23.1-103.5 56.1-145.5 98.1-42 42-75.1 91-98.1 145.5-23.9 56.5-36 116.4-36 178.2 0 62.6 12.4 123.2 36.8 180.2 3.9 9.1 14.5 13.4 23.6 9.5 9.1-3.9 13.4-14.5 9.5-23.6-22.5-52.5-33.9-108.4-33.9-166 0-232.6 189.3-421.9 421.9-421.9 232.6 0 421.9 189.3 421.9 421.9 0 232.6-189.3 421.9-421.9 421.9-59.6 0-117.3-12.2-171.3-36.2-9.1-4-19.7 0-23.8 9.1-4 9.1 0 19.7 9.1 23.8 58.7 26.1 121.2 39.3 186 39.3 61.8 0 121.8-12.1 178.2-36C742.8 792 791.8 759 833.8 717c42-42 75.1-91 98.1-145.5 23.9-56.5 36-116.4 36-178.2s-12.1-121.8-36-178.2c-23.1-54.5-56.1-103.5-98.1-145.5-42-42-91-75.1-145.5-98.1-56.5-24.1-116.5-36.2-178.3-36.2zM358.9 529.4h-125c-4.9 0-9.7 2-13.1 5.6l-173 182.7c-4.9 5.2-6.3 12.9-3.5 19.5s9.3 10.9 16.5 10.9h95.8l-1.2 102.1c-0.1 7.4 4.3 14.1 11.2 16.9 6.8 2.8 14.7 1.2 19.8-4.2l185.4-192.3c3.2-3.4 5-7.8 5-12.5v-110.7c0.1-10-7.9-18-17.9-18z m-117.2 36H341v85.4L192 805.3l0.9-75c0.1-4.8-1.8-9.4-5.2-12.9-3.4-3.4-8-5.3-12.8-5.3h-72.1l138.9-146.7zM510 375.20000000000005c-4.7 0-9.3 1.8-12.8 5.4L346.1 534.5c-7 7.1-6.9 18.5 0.2 25.5 7.1 7 18.5 6.9 25.5-0.2l151.1-153.9c7-7.1 6.9-18.5-0.2-25.5-3.6-3.5-8.1-5.2-12.7-5.2z"  horiz-adv-x="1024" />

    
    <glyph glyph-name="cuowuchuli" unicode="&#59269;" d="M992.256 358.912v-408.576c0-45.568-29.696-75.776-75.264-75.776h-802.304c-38.912 0-67.072 24.064-73.216 61.952-0.512 3.072-0.512 6.144-0.512 9.216V772.608c0 39.424 31.232 70.656 70.656 70.656h71.168c5.632 0 7.68-1.024 7.168-7.168-0.512-8.704-0.512-17.408 0-26.112 0.512-5.632-1.536-7.68-7.68-7.68-23.04 0.512-46.08 0-68.608 0-19.456 0-32.256-12.8-32.256-31.744v-823.296c0-18.944 12.8-31.744 31.744-32.256h5.12c265.216 0 530.432 0 795.136-0.512 23.04 0 37.888 13.312 37.376 37.376-0.512 271.872-0.512 543.232-0.512 815.104 0 24.576-11.264 35.328-35.84 35.328h-62.976c-5.12 0-7.168 1.536-6.656 6.656 0.512 9.728 0 19.456 0 28.672 0 4.096 1.024 5.632 5.12 5.632 25.6 0 51.712 0.512 77.312-0.512 34.816-1.536 63.488-33.792 63.488-69.632 1.536-137.728 1.536-275.968 1.536-414.208zM527.36 86.528c11.776-11.776 22.016-21.504 32.256-31.744 8.704-8.704 9.728-21.504 3.584-31.232-6.144-9.728-17.408-14.336-28.672-11.264-4.608 1.536-8.704 4.096-12.288 7.68l-87.552 87.552c-4.096 4.096-3.072 5.632 0 9.216l87.552 87.552c11.264 11.264 26.624 11.776 36.864 1.536 10.752-10.752 10.24-26.112-1.536-37.888l-28.16-28.16s0-0.512 0.512-1.536c23.552 1.024 47.104 5.632 68.608 14.848 84.992 36.352 134.656 99.84 143.872 192 12.288 122.368-76.8 230.912-199.168 245.76-122.368 14.336-232.96-70.144-251.392-192-1.536-10.24-2.56-20.992-2.56-31.232-0.512-15.872-11.264-26.624-25.6-26.624s-25.6 11.776-25.088 27.648c1.536 69.632 24.064 131.072 71.168 182.272 60.928 67.584 138.24 98.304 228.352 92.16 130.048-8.704 236.032-108.544 254.464-238.592 21.504-149.504-80.384-288.256-229.376-313.344-11.264-2.56-22.016-4.096-35.84-4.608zM607.232 442.88c0.512-6.656-2.56-11.776-7.168-16.384-15.872-15.872-31.744-31.744-47.616-47.104-4.096-4.096-3.584-6.144 0-9.728 15.872-15.36 31.232-31.232 47.104-46.592 9.728-9.728 10.752-22.016 2.048-30.72-8.704-8.704-20.992-8.192-30.72 1.536-14.848 14.848-30.208 29.696-45.056 45.056-6.144 6.144-8.704 5.12-14.336-0.512-14.336-15.36-29.696-29.696-44.544-44.544-10.24-10.24-23.04-10.752-31.232-2.048-8.192 8.704-7.168 20.992 2.56 30.72 15.36 15.872 31.232 31.232 47.104 46.592 4.096 4.096 3.584 6.144 0 9.728-15.872 15.36-31.232 31.232-47.104 46.592-10.24 10.24-10.752 23.04-2.048 31.232 8.704 8.192 20.992 7.68 30.72-2.56 15.872-15.36 31.232-31.232 46.592-47.104 3.584-4.096 6.144-4.096 9.728 0 15.872 16.384 32.256 32.768 48.64 48.64 6.656 6.656 13.824 8.192 22.528 4.608 8.704-2.56 12.288-8.704 12.8-17.408zM718.848 892.928h-404.992c-29.184 0-49.664-14.848-61.952-40.96-7.68-15.872-5.632-32.768-5.632-49.152 0.512-36.864 30.72-66.56 67.584-66.56h406.016c37.376 0 67.584 30.208 67.584 67.584v20.992c0 38.4-29.696 68.096-68.608 68.096z m32.768-84.48c0-23.552-12.8-36.352-35.84-36.352h-397.824c-22.528 0-35.84 13.312-35.84 35.84v18.944c0.512 17.408 14.848 31.232 31.744 31.232h406.016c17.408 0 31.232-13.824 31.744-31.232v-18.432z"  horiz-adv-x="1024" />

    
    <glyph glyph-name="shujuanquan1" unicode="&#58964;" d="M576.768 137.472l-71.350857 68.352a17.773714 17.773714 0 0 0-0.64 24.96 17.371429 17.371429 0 0 0 24.740571 0.64l56.228572-53.869714 101.632 154.770285a17.408 17.408 0 0 0 24.265143 4.955429 17.737143 17.737143 0 0 0 4.918857-24.466286l-113.152-172.288c-5.796571-8.832-18.962286-10.477714-26.642286-3.053714zM588.507429-124.214857c-259.620571 122.331429-307.145143 388.388571-315.337143 467.437714a41.435429 41.435429 0 0 0 24.740571 42.587429c51.035429 22.016 85.394286 70.4 89.654857 126.281143a33.956571 33.956571 0 0 0 33.682286 31.762285l348.288 2.066286h0.182857a34.194286 34.194286 0 0 0 33.828572-31.158857c4.827429-55.844571 39.698286-103.899429 90.989714-125.366857a41.563429 41.563429 0 0 0 25.380571-42.349715c-7.277714-79.140571-51.638857-345.910857-309.869714-471.131428a27.209143 27.209143 0 0 0-21.540571-0.128zM422.4 508.562286c-5.540571-68.699429-47.908571-128.128-110.72-155.245715a6.253714 6.253714 0 0 1-3.712-6.4c7.68-73.947429 51.273143-322.962286 291.108571-437.138285 238.445714 116.992 279.186286 366.500571 285.988572 440.521143a6.4 6.4 0 0 1-3.931429 6.491428c-63.067429 26.404571-106.020571 85.284571-112.347428 153.819429l-346.386286-2.048zM585.014857-51.748571c-78.281143 43.154286-140.836571 105.618286-184.868571 187.629714-36.534857 68.041143-52.662857 134.692571-59.757715 178.614857a29.312 29.312 0 0 0 13.659429 29.878857 192.859429 192.859429 0 0 1 85.76 113.792 29.257143 29.257143 0 0 0 27.849143 21.485714l256.182857 1.517715c12.982857 0 24.484571-8.612571 28.105143-21.156572a192.822857 192.822857 0 0 1 87.094857-112.768c10.294857-6.107429 15.780571-17.773714 14.006857-29.696-6.582857-44.013714-21.942857-110.829714-57.673143-179.328-43.081143-82.523429-104.923429-145.700571-182.674285-189.805714-7.387429-4.205714-17.993143-5.522286-27.684572-0.182857zM375.570286 316.269714c6.985143-41.216 22.217143-101.851429 55.332571-163.584 40.192-74.825143 96.621714-132.589714 167.753143-171.739428 70.674286 39.990857 126.427429 98.432 165.741714 173.714285 32.420571 62.134857 46.939429 122.934857 53.430857 164.224a227.931429 227.931429 0 0 0-98.194285 126.939429l-247.350857-1.462857a227.931429 227.931429 0 0 0-96.713143-128.091429zM1002.898286 110.317714h-82.651429A17.554286 17.554286 0 0 0 902.765714 128c0 9.746286 7.844571 17.664 17.499429 17.664h82.651428c86.454857 0 156.763429 70.948571 156.763429 158.134857 0 87.222857-70.308571 158.701714-156.763429 158.171429-19.986286-0.146286-21.723429 13.092571-21.906285 41.216-1.243429 197.12-158.976 357.522286-354.377143 357.522285-142.683429 0-276.48-91.721143-329.234286-224.987428-2.742857-6.893714-10.185143-10.88-24.905143-10.88-130.944-0.091429-237.476571-107.483429-237.476571-239.597714 0-132.096 106.532571-239.579429 237.476571-239.579429 9.691429 0 17.499429-7.917714 17.499429-17.664a17.572571 17.572571 0 0 0-17.499429-17.664C122.24 110.317714 0 233.654857 0 385.225143 0 535.826286 120.649143 658.523429 269.568 660.114286 353.499429 863.762286 547.218286 896 626.614857 896c214.692571 0 389.376-176.237714 389.376-392.832l-0.054857-6.363429c99.693714-6.765714 178.724571-90.752 178.724571-193.024 0-106.660571-86.016-193.462857-191.762285-193.462857z"  horiz-adv-x="1206" />

    
    <glyph glyph-name="weifuwu" unicode="&#58905;" d="M725.48 90.715l-72.762 42.009c-33.855-39.847-84.333-65.13-140.718-65.13-58.336 0-110.35 27.063-144.173 69.32l-70.666-40.8a105.557 105.557 0 0 0 3.901-28.52c0-58.249-47.22-105.469-105.468-105.469-58.249 0-105.469 47.22-105.469 105.469 0 58.248 47.22 105.469 105.469 105.468 29.365 0 55.927-12 75.049-31.365l70.44 40.669c-8.802 21.532-13.653 45.099-13.653 69.798 0 92.983 68.758 169.907 158.203 182.702v56.79c-74.823 12.553-131.836 77.627-131.836 156.016 0 87.373 70.83 158.203 158.203 158.203s158.203-70.83 158.203-158.203c0-78.39-57.013-143.462-131.836-156.016v-56.79c89.445-12.795 158.203-89.719 158.203-182.702 0-26.611-5.632-51.908-15.768-74.762l68.794-39.718c19.318 21.706 47.466 35.379 78.81 35.379 58.249 0 105.469-47.22 105.469-105.47 0-58.248-47.22-105.468-105.469-105.468-58.248 0-105.469 47.22-105.468 105.469 0 7.943 0.878 15.68 2.541 23.121zM512 120.328c72.811 0 131.836 59.025 131.836 131.836S584.81 384 512 384s-131.836-59.025-131.836-131.836S439.19 120.328 512 120.328z m0 421.875c58.248 0 105.469 47.22 105.469 105.469 0 58.248-47.22 105.469-105.469 105.469-58.248 0-105.469-47.22-105.469-105.47 0-58.248 47.22-105.468 105.469-105.468zM195.594 14.86c29.124 0 52.734 23.61 52.734 52.735 0 29.124-23.61 52.734-52.734 52.734-29.124 0-52.735-23.61-52.735-52.734 0-29.124 23.61-52.735 52.735-52.735z m632.812 0c29.124 0 52.735 23.61 52.735 52.735 0 29.124-23.61 52.734-52.735 52.734-29.124 0-52.734-23.61-52.734-52.734 0-29.124 23.61-52.735 52.734-52.735z"  horiz-adv-x="1024" />

    
    <glyph glyph-name="gengxin2" unicode="&#58906;" d="M512-128c-69.1 0-136.2 13.5-199.3 40.2-60.9 25.8-115.7 62.7-162.8 109.7-47 47-84 101.7-109.7 162.8C13.5 247.8 0 314.9 0 384c0 69.1 13.5 136.2 40.2 199.3 25.8 60.9 62.7 115.7 109.7 162.8 47 47 101.7 84 162.8 109.7C375.8 882.4 442.9 896 512 896c69 0 136.2-13.6 199.3-40.2C772.2 830 827 793.1 874 746c47-47 84-101.7 109.7-162.8 26.7-63.1 40.2-130.2 40.2-199.3 0-69.1-13.5-136.2-40.2-199.3-25.8-60.9-62.7-115.7-109.7-162.8-47-47-101.7-84-162.8-109.7-63-26.5-130.2-40.1-199.2-40.1z m0 950.7c-117.2 0-227.4-45.6-310.2-128.5C118.9 611.3 73.3 501.1 73.3 384c0-117.2 45.6-227.2 128.5-310.2 82.8-82.8 193-128.5 310.2-128.5C629.2-54.7 739.3-9 822.2 73.8c82.8 82.8 128.5 193 128.5 310.2 0 117.2-45.6 227.4-128.5 310.2-82.9 82.9-193 128.5-310.2 128.5z m0 0M383.7 263.7l63.5 59.8-169.2 10.1-0.1-169.4 63.5 59.8c93.5-99.2 244.8-108.2 338.2-20.2 33.2 31.3 54.3 70.6 63.9 112.7l-61.7 3.7c-8.2-26.6-22.9-51.3-44.4-71.5-70.1-66.2-183.6-59.5-253.7 15zM277.6 449.9l61.7-3.7c8.2 26.6 22.9 51.3 44.4 71.5 70.1 66.1 183.6 59.2 253.7-15.1l-63.5-59.8 169.3-10 0.1 169.4-63.5-59.8c-93.5 99.2-244.8 108.2-338.2 20.2-33.3-31.2-54.4-70.5-64-112.7z m0 0"  horiz-adv-x="1024" />

    
    <glyph glyph-name="dingzhi2" unicode="&#59046;" d="M320-68.096L1024 808.96v-876.544H320z m54.784 26.624h622.592V733.696L374.784-41.472zM641.536 96.256l223.232 277.504v-277.504h-223.232z m55.296 26.624h141.824v176.128L696.832 122.88zM36.352 122.368l493.056 600.576 143.36-117.76-493.056-600.576L0-68.096l36.352 190.464z m23.552-11.264L46.592 40.96l11.264-4.096c6.144-2.048 11.776-5.12 16.384-9.216 6.144-5.12 10.752-11.264 14.336-18.432l5.632-11.776L163.84 25.6l473.088 576L532.48 687.104 59.904 111.104zM693.248 670.72l34.816 42.496c5.632 6.656 7.68 14.848 7.168 23.04-1.024 8.704-5.12 15.872-11.264 21.504l-55.296 45.056c-5.632 4.608-12.8 7.168-19.968 7.168-9.728 0-18.432-4.096-24.576-11.776l-34.816-42.496-19.456 15.872 34.816 42.496c9.728 11.776 23.552 18.944 38.4 20.48 2.048 0 3.584 0.512 5.632 0.512 13.312 0 25.6-4.608 36.352-12.8l55.296-45.056c11.776-9.728 18.944-23.552 20.48-38.4 1.536-15.36-3.072-30.208-12.8-41.984l-34.816-42.496-19.968 16.384z"  horiz-adv-x="1024" />

    
    <glyph glyph-name="icon_MicroservicesManagementPlatform" unicode="&#59027;" d="M949.333333 514.133333h-85.333333v87.466667c55.466667 14.933333 98.133333 66.133333 98.133333 125.866667 0 72.533333-57.6 130.133333-130.133333 130.133333-59.733333 0-110.933333-42.666667-125.866667-98.133333h-64V832c0 17.066667-14.933333 32-32 32h-533.333333C57.6 864 42.666667 849.066667 42.666667 832v-874.666667c0-17.066667 14.933333-32 32-32h874.666666c17.066667 0 32 14.933333 32 32V482.133333c0 17.066667-14.933333 32-32 32zM832 793.6c36.266667 0 66.133333-29.866667 66.133333-66.133333S868.266667 661.333333 832 661.333333s-66.133333 29.866667-66.133333 66.133334 29.866667 66.133333 66.133333 66.133333z m-125.866667-98.133333c10.666667-44.8 46.933333-81.066667 93.866667-93.866667v-87.466667h-157.866667V695.466667h64zM917.333333-10.666667H106.666667v810.666667h469.333333v-317.866667c0-17.066667 14.933333-32 32-32H917.333333v-460.8zM633.6 388.266667c-4.266667-2.133333-6.4-4.266667-8.533333-6.4L469.333333 238.933333c-12.8-12.8-12.8-32-2.133333-44.8 12.8-12.8 32-12.8 44.8-2.133333l100.266667 93.866667v-234.666667c0-17.066667 14.933333-32 32-32s32 14.933333 32 32V290.133333l117.333333-100.266666c6.4-4.266667 12.8-8.533333 21.333333-8.533334s19.2 4.266667 23.466667 10.666667c10.666667 12.8 10.666667 34.133333-4.266667 44.8l-170.666666 145.066667c-2.133333 2.133333-6.4 4.266667-8.533334 4.266666h-2.133333c-2.133333 0-6.4 2.133333-8.533333 2.133334h-2.133334c-2.133333 2.133333-4.266667 2.133333-8.533333 0zM469.333333 691.2c-32 25.6-70.4 40.533333-110.933333 40.533333-96 0-172.8-76.8-172.8-172.8 0-66.133333 38.4-128 100.266667-155.733333 4.266667-2.133333 8.533333-2.133333 12.8-2.133333 12.8 0 23.466667 6.4 29.866666 19.2 8.533333 17.066667 0 34.133333-14.933333 42.666666-38.4 17.066667-61.866667 55.466667-61.866667 98.133334 0 59.733333 49.066667 108.8 108.8 108.8 25.6 0 51.2-8.533333 70.4-25.6 12.8-10.666667 34.133333-8.533333 44.8 4.266666 8.533333 10.666667 6.4 29.866667-6.4 42.666667z"  horiz-adv-x="1024" />

    
    <glyph glyph-name="cuowurizhi" unicode="&#58931;" d="M545.536 332.8l109.8752-109.9264c11.5712-11.5712 13.6192-28.5696 4.4032-37.8368-9.2672-9.216-26.368-7.2704-37.888 4.3008L512 299.2128l-109.056-109.0048a32.1536 32.1536 0 0 0-27.136-10.752 19.712 19.712 0 0 0-17.152 17.2032 32.1536 32.1536 0 0 0 10.752 27.136L478.464 332.8 368.4864 442.6752c-11.6224 11.6224-13.5168 28.5696-4.2496 37.888 9.216 9.216 26.2144 7.3216 37.8368-4.3008L512 366.336l109.9776 109.9776c11.52 11.52 28.5184 13.5168 37.7856 4.2496 9.216-9.216 7.2704-26.3168-4.2496-37.7856L545.536 332.8zM384 566.784c-14.1312 0-25.6 13.056-25.6 29.2352V713.0112c0 16.1792 11.4688 29.2864 25.6 29.2864s25.6-13.1072 25.6-29.2864v-116.992a31.4368 31.4368 0 0 0-7.4752-20.6848 24.064 24.064 0 0 0-18.1248-8.5504z m128 0.1024c-14.1312 0-25.6 13.056-25.6 29.2352V713.1136c0 16.1792 11.4688 29.2864 25.6 29.2864s25.6-13.1072 25.6-29.2864v-116.992a31.4368 31.4368 0 0 0-7.4752-20.6848 24.064 24.064 0 0 0-18.1248-8.5504zM435.2 632.7296V691.2H460.8v-58.4704h-25.6zM563.2 691.2h25.6v-58.4704H563.2V691.2z m76.8-123.392c-14.2336 0-25.6 13.0048-25.6 29.1328V713.216c0 16.0768 11.4688 29.1328 25.6 29.1328s25.6-13.056 25.6-29.1328v-116.3776c0-16.0768-11.52-29.0816-25.6-29.0816zM870.4 588.8v-460.8c0-68.2496-34.1504-102.4-102.4-102.4H256c-102.4 0-102.4 102.4-102.4 102.912V588.8s0 102.4 102.4 102.4h51.2v-51.2H256C204.8 640 204.8 588.8 204.8 588.8v-460.8c0-34.1504 17.0496-51.2 51.2-51.2h512c51.2 0 51.2 51.2 51.2 51.2V588.8s0 51.2-51.2 51.2h-51.2V691.2h51.2c102.4 0 102.4-102.4 102.4-102.4z"  horiz-adv-x="1024" />

    
    <glyph glyph-name="dingzhi3" unicode="&#58926;" d="M740.983 852.711a119.065 119.065 0 0 0 84.445 35.013 118.812 118.812 0 0 0 84.305-34.928l67.696-67.683c46.571-46.57 46.43-122.22-0.098-168.721l-84.403-84.403-0.645 0.645a11.152 11.152 0 0 1-0.52-0.56l-590.609-598.83c-3.843-3.886-8.697-6.172-13.677-6.93a19.498 19.498 0 0 0-8.051-2.833l-246.181-37.874c-12.947-2.006-21.897 6.789-19.919 19.848l37.453 245.718c0.898 5.751 3.212 9.539 6.34 11.096 1.15 2.721 2.792 5.288 4.966 7.477l593.542 598.997a23.97 23.97 0 0 0 5.498 4.139l79.858 79.83z m-15.065-85.903L894.766 597.96l50.638 50.653a71.68 71.68 0 0 1 0.099 101.207l-67.71 67.697a71.526 71.526 0 0 1-101.208-0.07l-50.667-50.64zM124.844 166.519l170.924-169.493 563.62 566.048-168.89 168.89-565.654-565.445z m-30.678-34.002L60.318-70.824l204.042 34.661-170.208 168.68zM223.456 888.902a23.93 23.93 0 0 0 33.919 0.084L515.9 627.628l-32.025-32.207L240.444 838.389 71.624 669.57l67.514-67.527 70.025 70.039 33.792-33.764-70.053-70.053 50.667-50.639 70.024 70.025 33.75-33.764-70.024-70.025 33.764-33.75 117.872 117.886 22.738-25.375-117.17-117.746-33.456-34.185-260.04 261.934a23.959 23.959 0 0 0 0.07 33.932L223.457 888.902zM714.78 352.494l39.67 40.133 262.508-263.224a23.987 23.987 0 0 0-0.042-33.919l-202.373-202.387a23.945 23.945 0 0 0-33.918-0.042l-50.597 50.583-33.778 33.736-175.553 178.12 31.38 31.828 26.006-24.225 70.053 70.038 33.736-33.764-70.025-70.024 50.639-50.667 70.053 70.052 33.778-33.763-70.067-70.053 33.778-33.75 117.9 117.886 33.75-33.75-117.886-117.9 33.75-33.778 168.82 168.834-251.596 240.05z"  horiz-adv-x="1024" />

    
    <glyph glyph-name="yingxiao" unicode="&#58949;" d="M819.2 742.4h-219.648l58.368 58.88a24.576 24.576 0 0 1 0 35.84 24.576 24.576 0 0 1-35.84 0L526.848 742.4h-56.32L376.32 837.12a24.576 24.576 0 0 1-35.84 0 24.576 24.576 0 0 1 0-35.84L398.848 742.4H204.8a102.4 102.4 0 0 1-102.4-102.4v-460.8a102.4 102.4 0 0 1 102.4-102.4h180.736l-99.328-138.752a25.6 25.6 0 0 1 6.144-35.84 26.624 26.624 0 0 1 14.848-4.608 25.088 25.088 0 0 1 20.992 10.752L448.512 76.8h153.6l120.32-168.448a25.088 25.088 0 0 1 20.992-10.752 26.624 26.624 0 0 1 14.848 4.608 25.6 25.6 0 0 1 6.144 35.84L665.6 76.8h153.6a102.4 102.4 0 0 1 102.4 102.4V640a102.4 102.4 0 0 1-102.4 102.4z m51.2-563.2a51.2 51.2 0 0 0-51.2-51.2H204.8a51.2 51.2 0 0 0-51.2 51.2V640a51.2 51.2 0 0 0 51.2 51.2h614.4a51.2 51.2 0 0 0 51.2-51.2zM721.408 552.448l-131.072-183.296L409.6 503.296l-147.456-153.6a25.6 25.6 0 1 1 36.864-35.84L416.256 435.2l185.344-138.752 161.792 226.304a25.6 25.6 0 0 1-6.144 35.84 26.112 26.112 0 0 1-35.84-6.144z"  horiz-adv-x="1024" />

    
    </font>
</defs>
</svg>
